<?xml version="1.0" standalone="no"?>
<!DOCTYPE svg PUBLIC "-//W3C//DTD SVG 1.1//EN" "http://www.w3.org/Graphics/SVG/1.1/DTD/svg11.dtd" >
<svg xmlns="http://www.w3.org/2000/svg" xmlns:xlink="http://www.w3.org/1999/xlink" version="1.1">
<metadata>
Created by FontForge 20230101 at Wed Nov 18 21:24:02 2020
 By Unknown
Copyright 2020 The JetBrains Mono Project Authors (https://github.com/JetBrains/JetBrainsMono)
</metadata>
<defs>
<font id="JetBrainsMono-Regular" horiz-adv-x="600" >
  <font-face 
    font-family="JetBrains Mono"
    font-weight="400"
    font-stretch="normal"
    units-per-em="1000"
    panose-1="2 0 0 9 0 0 0 0 0 0"
    ascent="800"
    descent="-200"
    x-height="550"
    cap-height="730"
    bbox="-1735 -300 1170 1020"
    underline-thickness="50"
    underline-position="-230"
    unicode-range="U+000D-FEFF"
  />
<missing-glyph 
d="M90 0v730h420v-730h-420zM160 50h300v571zM140 109l300 571h-300v-571z" />
    <glyph glyph-name=".notdef" 
d="M90 0v730h420v-730h-420zM160 50h300v571zM140 109l300 571h-300v-571z" />
    <glyph glyph-name=".null" horiz-adv-x="0" 
 />
    <glyph glyph-name="nonmarkingreturn" horiz-adv-x="333" 
 />
    <glyph glyph-name="CR" unicode="&#xd;" 
 />
    <glyph glyph-name="space" unicode=" " 
 />
    <glyph glyph-name="exclam" unicode="!" 
d="M268 215l-21 395v120h106v-120l-21 -395h-64zM285 -5q-26 0 -43 17t-17 43t17 43t43 17h30q29 0 44.5 -16.5t15.5 -42.5t-17 -43.5t-43 -17.5h-30z" />
    <glyph glyph-name="quotedbl" unicode="&#x22;" 
d="M365 430l-12 210v90h97v-90l-11 -210h-74zM162 430l-12 210v90h97v-90l-11 -210h-74z" />
    <glyph glyph-name="numbersign" unicode="#" 
d="M83 0l37 200h-85v65h97l36 200h-98v65h110l37 200h70l-37 -200h160l37 200h70l-37 -200h85v-65h-97l-36 -200h98v-65h-110l-37 -200h-70l37 200h-160l-37 -200h-70zM202 265h160l36 200h-160z" />
    <glyph glyph-name="dollar" unicode="$" 
d="M275 -140v131q-94 8 -147.5 60.5t-55.5 138.5h90q0 -49 29.5 -80t83.5 -38v262l-27 8q-75 23 -115.5 77t-40.5 127q0 80 49.5 132t133.5 60v132h60v-131q83 -8 133 -60t51 -134h-90q0 47 -24.5 76.5t-69.5 36.5v-248l40 -13q73 -23 113 -78t40 -129q0 -82 -52.5 -136
t-140.5 -63v-131h-60zM335 72q49 8 76 38t27 78q0 44 -23.5 77t-67.5 46l-12 4v-243zM275 389v269q-44 -7 -68.5 -34t-24.5 -70q0 -52 32 -87.5t92 -44.5z" />
    <glyph glyph-name="percent" unicode="%" 
d="M14 0l498 730h74l-498 -730h-74zM445 -5q-63 0 -101 36t-38 99v65q0 63 38 99t101 36t101 -36t38 -99v-65q0 -63 -38 -99t-101 -36zM445 64q65 0 65 66v65q0 67 -65 67t-65 -67v-65q0 -66 65 -66zM155 400q-63 0 -101 36t-38 99v65q0 63 38 99t101 36t101 -36t38 -99v-65
q0 -63 -38 -99t-101 -36zM155 468q65 0 65 67v65q0 67 -65 67q-32 0 -48.5 -16.5t-16.5 -50.5v-65q0 -34 16.5 -50.5t48.5 -16.5z" />
    <glyph glyph-name="ampersand" unicode="&#x26;" 
d="M230 -10q-82 0 -128.5 44t-46.5 121v125q0 53 27.5 89.5t78.5 51.5l-7 10q-31 42 -45 78t-14 72q0 48 22.5 84t63 55.5t94.5 19.5q58 0 100.5 -21t65.5 -59t23 -91h-90q0 29 -12 50t-34 32t-53 11q-27 0 -47.5 -10t-31.5 -28.5t-11 -44.5q0 -25 10.5 -54t29.5 -55
l172 -237l71 127h94l-113 -199l117 -161h-99l-63 87q-74 -97 -174 -97zM235 70q34 0 65.5 22.5t53.5 62.5l-147 203q-31 -5 -46.5 -25t-15.5 -53v-125q0 -40 23.5 -62.5t66.5 -22.5z" />
    <glyph glyph-name="quotesingle" unicode="'" 
d="M258 430l-12 150v150h97v-150l-11 -150h-74z" />
    <glyph glyph-name="parenleft" unicode="(" 
d="M485 -120q-142 35 -221 138t-79 252v180q0 98 36.5 177.5t104 134.5t159.5 78v-85q-64 -15 -111 -57.5t-73 -105.5t-26 -142v-180q0 -77 25.5 -140t73 -104.5t111.5 -56.5v-89z" />
    <glyph glyph-name="parenright" unicode=")" 
d="M115 -120v89q65 15 112 56.5t72.5 104.5t25.5 140v180q0 79 -26 142t-73 105.5t-111 57.5v85q93 -23 160 -78t103.5 -134.5t36.5 -177.5v-180q0 -149 -79 -252t-221 -138z" />
    <glyph glyph-name="asterisk" unicode="*" 
d="M181 94l-72 50l54 78q13 19 31 37.5t36.5 35t32.5 28.5l-3 7q-19 2 -43 4.5t-48.5 8t-45.5 12.5l-88 32l30 83l88 -32q21 -7 43.5 -19.5t43.5 -26t36 -25.5l5 4q-5 19 -11 43.5t-10 51t-4 49.5v95h88v-95q0 -23 -4 -49.5t-10 -51t-12 -43.5l5 -4q16 12 36.5 25.5t43 26
t43.5 19.5l89 32l30 -83l-89 -32q-20 -7 -44.5 -12.5t-48.5 -8t-43 -4.5l-4 -8q15 -12 33.5 -28.5t36 -35t29.5 -36.5l55 -78l-72 -50l-55 78q-12 18 -23.5 41t-21 46t-15.5 41h-7q-6 -18 -15.5 -41t-21 -46t-24.5 -41z" />
    <glyph glyph-name="plus" unicode="+" 
d="M256 95v195h-191v80h191v195h88v-195h191v-80h-191v-195h-88z" />
    <glyph glyph-name="comma" unicode="," 
d="M165 -160l80 311h130l-130 -311h-80z" />
    <glyph glyph-name="hyphen" unicode="-" 
d="M140 290v80h320v-80h-320z" />
    <glyph glyph-name="period" unicode="." 
d="M300 -10q-38 0 -60.5 22t-22.5 59q0 39 22.5 62t60.5 23t60.5 -23t22.5 -62q0 -37 -22.5 -59t-60.5 -22z" />
    <glyph glyph-name="slash" unicode="/" 
d="M75 -110l355 940h95l-355 -940h-95z" />
    <glyph glyph-name="zero" unicode="0" 
d="M300 -10q-67 0 -116.5 26.5t-76.5 75t-27 113.5v320q0 66 27 114t76.5 74.5t116.5 26.5q68 0 117 -26.5t76 -74.5t27 -114v-320q0 -65 -27 -113.5t-76.5 -75t-116.5 -26.5zM300 67q60 0 96.5 38.5t36.5 99.5v320q0 61 -36.5 99.5t-96.5 38.5t-96.5 -38.5t-36.5 -99.5
v-320q0 -61 36.5 -99.5t96.5 -38.5zM300 306q-27 0 -43.5 17t-16.5 45q0 27 16.5 43.5t43.5 16.5t43.5 -16.5t16.5 -43.5q0 -28 -16.5 -45t-43.5 -17z" />
    <glyph glyph-name="one" unicode="1" 
d="M90 0v82h198v573l-198 -148v100l165 123h123v-648h162v-82h-450z" />
    <glyph glyph-name="two" unicode="2" 
d="M92 0v92l223 237q57 61 83 108.5t26 91.5q0 61 -33.5 96t-91.5 35q-64 0 -100.5 -36t-36.5 -99h-90q2 66 30.5 114.5t79 74.5t117.5 26q66 0 114.5 -25.5t74.5 -72.5t26 -112q0 -62 -33 -123t-108 -139l-180 -186h333v-82h-434z" />
    <glyph glyph-name="three" unicode="3" 
d="M289 -10q-66 0 -115.5 26.5t-76.5 73.5t-27 110h90q0 -61 34.5 -95.5t95.5 -34.5q62 0 96 36t34 94v52q0 62 -34 96t-96 34h-75v90l181 176h-296v82h387v-90l-195 -189v11q100 0 159 -57t59 -153v-52q0 -63 -27.5 -110t-77.5 -73.5t-116 -26.5z" />
    <glyph glyph-name="four" unicode="4" 
d="M410 0v160h-330v141l289 429h98l-297 -448v-40h240v178h90v-420h-90z" />
    <glyph glyph-name="five" unicode="5" 
d="M298 -10q-89 0 -146 46t-67 124h90q5 -43 37 -66.5t87 -23.5q63 0 94.5 34t31.5 96v71q0 62 -31.5 96t-93.5 34q-39 0 -68 -20.5t-42 -54.5h-90l5 404h384v-82h-297l-3 -243h28l-28 -26q0 47 37.5 74t100.5 27q89 1 138.5 -54.5t49.5 -154.5v-71q0 -97 -57 -153.5
t-160 -56.5z" />
    <glyph glyph-name="six" unicode="6" 
d="M301 -10q-70 0 -122.5 29.5t-81.5 82.5t-29 123q0 55 15.5 108t46.5 102l183 295h100l-207 -332l4 -3q19 28 52 43t74 15q60 0 104 -28t68 -79t24 -121t-29 -123t-80.5 -82.5t-121.5 -29.5zM300 70q64 0 103 42.5t39 112.5t-39 112.5t-103 42.5t-103 -42.5t-39 -112.5
t39 -112.5t103 -42.5z" />
    <glyph glyph-name="seven" unicode="7" 
d="M185 0l261 648h-276v-108h-90v190h455v-88l-253 -642h-97z" />
    <glyph glyph-name="eight" unicode="8" 
d="M300 -10q-67 0 -116.5 23.5t-76.5 67.5t-27 103q0 65 35.5 112t112.5 84l97 47q44 21 68 55t24 75q0 48 -31.5 76t-85.5 28t-85.5 -28.5t-31.5 -76.5q0 -40 23.5 -74t64.5 -54l97 -46q80 -37 116 -84.5t36 -113.5q0 -89 -59.5 -141.5t-160.5 -52.5zM300 70
q61 0 96.5 31.5t35.5 84.5q0 43 -23 78t-66 56l-96 47q-80 39 -116 84t-36 108q0 56 25 97t71 63t109 22t109 -22t71 -63t25 -97q0 -63 -36 -107.5t-119 -85.5l-96 -47q-41 -20 -63.5 -54.5t-22.5 -76.5q0 -54 35.5 -86t96.5 -32z" />
    <glyph glyph-name="nine" unicode="9" 
d="M187 0l207 332l-4 3q-19 -28 -52 -43t-74 -15q-59 0 -103.5 28t-68.5 79.5t-24 120.5q0 71 29 123.5t81 82t121 29.5q70 0 122.5 -29.5t81.5 -82t29 -123.5q0 -55 -15.5 -108t-46.5 -102l-183 -295h-100zM300 350q64 0 103 42.5t39 112.5t-39 112.5t-103 42.5t-103 -42.5
t-39 -112.5t39 -112.5t103 -42.5z" />
    <glyph glyph-name="colon" unicode=":" 
d="M300 410q-37 0 -60 20.5t-23 54.5t23 54.5t60 20.5q38 0 60.5 -20.5t22.5 -54.5t-22.5 -54.5t-60.5 -20.5zM300 -10q-37 0 -60 20.5t-23 54.5t23 54.5t60 20.5q38 0 60.5 -20.5t22.5 -54.5t-22.5 -54.5t-60.5 -20.5z" />
    <glyph glyph-name="semicolon" unicode=";" 
d="M170 -160l80 311h130l-130 -311h-80zM290 410q-33 0 -54 21t-21 54q0 32 21.5 53.5t53.5 21.5h20q32 0 53.5 -21.5t21.5 -53.5q0 -33 -21 -54t-54 -21h-20z" />
    <glyph glyph-name="less" unicode="&#x3c;" 
d="M515 65l-430 215v100l430 215v-87l-310 -152q-19 -9 -35.5 -15.5t-24.5 -8.5q9 -2 26 -8.5t34 -15.5l310 -153v-90z" />
    <glyph glyph-name="equal" unicode="=" 
d="M85 410v80h430v-80h-430zM85 170v80h430v-80h-430z" />
    <glyph glyph-name="greater" unicode="&#x3e;" 
d="M85 65v87l310 152q19 9 35.5 15.5t24.5 8.5q-9 2 -26 8.5t-34 15.5l-310 153v90l430 -215v-100z" />
    <glyph glyph-name="question" unicode="?" 
d="M211 205v180h50q64 0 101.5 35.5t37.5 94.5t-37.5 94.5t-102.5 35.5h-125v85h125q70 0 121.5 -26.5t80 -74.5t28.5 -114q0 -57 -24 -102.5t-66.5 -72.5t-98.5 -30v-105h-90zM240 -5q-26 0 -43 17t-17 43t17 43t43 17h30q29 0 44.5 -16.5t15.5 -42.5t-17 -43.5t-43 -17.5
h-30z" />
    <glyph glyph-name="at" unicode="@" 
d="M325 -180q-85 0 -148 35.5t-97.5 101t-34.5 153.5v340q0 90 32.5 155t93 100t144.5 35q76 0 131 -29.5t84.5 -84.5t29.5 -131v-430h-71v55h-28l19 20q0 -38 -29 -61.5t-77 -23.5q-65 0 -99.5 39.5t-34.5 115.5v120q0 76 34.5 115.5t99.5 39.5q48 0 77 -23.5t29 -62.5
l-14 21h24l-10 70v5q0 57 -19 96t-55.5 59t-90.5 20q-90 0 -140 -58t-50 -162v-340q0 -100 53.5 -157.5t146.5 -57.5h70v-75h-70zM400 118q41 0 60.5 25t19.5 77v111q0 47 -19.5 69t-60.5 22q-40 0 -60 -22.5t-20 -69.5v-120q0 -47 20 -69.5t60 -22.5z" />
    <glyph glyph-name="A" unicode="A" 
d="M50 0l190 730h121l189 -730h-91l-48 194h-221l-48 -194h-92zM208 270h184l-56 225q-16 64 -25 107t-11 56q-2 -13 -11 -56t-25 -106z" />
    <glyph glyph-name="B" unicode="B" 
d="M93 0v730h207q100 0 156.5 -50t56.5 -139q0 -50 -21 -87t-59.5 -57t-92.5 -19v15q58 1 100.5 -22t66 -66t23.5 -102q0 -62 -26 -108t-74 -70.5t-115 -24.5h-222zM181 81h124q63 0 99.5 33.5t36.5 91.5q0 60 -36.5 97.5t-99.5 37.5h-124v-260zM181 419h118q58 0 91.5 31
t33.5 84t-33 84t-91 31h-119v-230z" />
    <glyph glyph-name="C" unicode="C" 
d="M304 -10q-66 0 -114.5 25t-75 72.5t-26.5 112.5v330q0 66 26.5 113t75 72t114.5 25t114 -25.5t74 -72.5t26 -112h-90q0 62 -32.5 95.5t-91.5 33.5t-92.5 -33t-33.5 -95v-331q0 -62 33.5 -95.5t92.5 -33.5t91.5 33.5t32.5 95.5h90q0 -64 -26 -111.5t-74 -73t-114 -25.5z
" />
    <glyph glyph-name="D" unicode="D" 
d="M92 0v730h189q71 0 122.5 -27t80 -76t28.5 -116v-291q0 -67 -28.5 -116.5t-80 -76.5t-122.5 -27h-189zM182 80h99q66 0 103.5 37t37.5 103v291q0 65 -37.5 102t-103.5 37h-99v-570z" />
    <glyph glyph-name="E" unicode="E" 
d="M100 0v730h420v-82h-331v-226h296v-81h-296v-259h331v-82h-420z" />
    <glyph glyph-name="F" unicode="F" 
d="M95 0v731h430v-82h-342v-243h316v-82h-314v-324h-90z" />
    <glyph glyph-name="G" unicode="G" 
d="M304 -10q-66 0 -114.5 25t-75 72.5t-26.5 112.5v330q0 66 26.5 113t75 72t114.5 25t114 -25.5t74 -72.5t26 -112h-90q0 62 -32.5 95.5t-91.5 33.5t-92.5 -33t-33.5 -95v-331q0 -62 33.5 -96t92.5 -34t91.5 34t32.5 96v90h-148v82h238v-172q0 -64 -26 -111.5t-74 -73
t-114 -25.5z" />
    <glyph glyph-name="H" unicode="H" 
d="M93 0v730h90v-312h234v312h90v-730h-90v336h-234v-336h-90z" />
    <glyph glyph-name="I" unicode="I" 
d="M105 0v82h149v566h-149v82h390v-82h-149v-566h149v-82h-390z" />
    <glyph glyph-name="J" unicode="J" 
d="M270 -10q-105 0 -165 59t-60 161h90q0 -67 35.5 -103.5t99.5 -36.5t99.5 36.5t35.5 103.5v438h-175v82h265v-520q0 -102 -60.5 -161t-164.5 -59z" />
    <glyph glyph-name="K" unicode="K" 
d="M92 0v730h90v-313h108l162 313h98l-181 -351l191 -379h-103l-170 338h-105v-338h-90z" />
    <glyph glyph-name="L" unicode="L" 
d="M115 0v730h90v-648h330v-82h-420z" />
    <glyph glyph-name="M" unicode="M" 
d="M76 0v730h118l76 -236q11 -32 20 -63.5t13 -48.5q5 17 13 48.5t18 64.5l72 235h118v-730h-88v265q0 44 3 100t8 114.5t10.5 112t9.5 93.5l-118 -365h-95l-119 365q5 -39 10 -90.5t9 -109t7 -114.5t3 -106v-265h-88z" />
    <glyph glyph-name="N" unicode="N" 
d="M90 0v730h120l223 -625q-2 25 -4.5 61.5t-4 77t-1.5 76.5v410h87v-730h-120l-222 625q2 -24 4 -60.5t3.5 -77t1.5 -77.5v-410h-87z" />
    <glyph glyph-name="O" unicode="O" 
d="M300 -10q-66 0 -113.5 25t-73 72.5t-25.5 112.5v330q0 66 25.5 113t73 72t113.5 25t113.5 -25t73 -72t25.5 -112v-331q0 -65 -25.5 -112.5t-73 -72.5t-113.5 -25zM300 71q59 0 90.5 33.5t31.5 95.5v330q0 62 -31.5 95.5t-90.5 33.5q-58 0 -90 -33.5t-32 -95.5v-330
q0 -62 32 -95.5t90 -33.5z" />
    <glyph glyph-name="P" unicode="P" 
d="M92 0v730h235q68 0 118 -26.5t77.5 -74.5t27.5 -114q0 -65 -27.5 -113.5t-77.5 -75t-118 -26.5h-145v-300h-90zM182 381h145q59 0 94.5 36.5t35.5 97.5q0 62 -35.5 98t-94.5 36h-145v-268z" />
    <glyph glyph-name="Q" unicode="Q" 
d="M422 -180l-107 177l10 -6q-4 0 -10.5 -0.5t-14.5 -0.5q-67 0 -116.5 26.5t-76.5 75t-27 113.5v320q0 66 27 114t76.5 74.5t116.5 26.5q68 0 117 -26.5t76 -74.5t27 -114v-320q0 -67 -29 -117t-82 -75l117 -193h-104zM300 70q59 0 94.5 37t35.5 98v320q0 62 -35.5 98.5
t-94.5 36.5t-94.5 -36.5t-35.5 -98.5v-320q0 -61 35.5 -98t94.5 -37z" />
    <glyph glyph-name="R" unicode="R" 
d="M92 0v730h226q65 0 114 -26.5t76 -73.5t27 -110q0 -74 -38.5 -127t-104.5 -73l153 -320h-106l-140 310h-117v-310h-90zM182 391h136q56 0 90 35.5t34 93.5q0 59 -34 94t-90 35h-136v-258z" />
    <glyph glyph-name="S" unicode="S" 
d="M304 -10q-72 0 -123.5 24t-79.5 69t-29 107h90q0 -55 37.5 -87t104.5 -32q63 0 98.5 31t35.5 86q0 44 -23.5 77t-67.5 46l-99 31q-75 23 -115.5 77t-40.5 127q0 59 26.5 102.5t74.5 68t113 24.5q96 0 154 -53.5t59 -142.5h-90q0 54 -32.5 84.5t-91.5 30.5
q-58 0 -90.5 -28t-32.5 -78q0 -45 24 -78t69 -47l100 -32q73 -23 113 -78t40 -129q0 -60 -28 -105t-78.5 -70t-117.5 -25z" />
    <glyph glyph-name="T" unicode="T" 
d="M255 0v649h-200v82h490v-82h-200v-649h-90z" />
    <glyph glyph-name="U" unicode="U" 
d="M300 -10q-102 0 -156 56.5t-54 153.5v530h90v-530q0 -60 29.5 -95t90.5 -35q60 0 90 35t30 95v530h90v-530q0 -98 -53.5 -154t-156.5 -56z" />
    <glyph glyph-name="V" unicode="V" 
d="M238 0l-188 730h93l124 -496q13 -52 22 -96.5t13 -67.5q4 23 12.5 67.5t21.5 96.5l123 496h91l-189 -730h-123z" />
    <glyph glyph-name="W" unicode="W" 
d="M109 0l-84 730h86l55 -540q2 -22 4 -45.5t3.5 -44.5t1.5 -35q2 14 3.5 35t4 44.5t5.5 45.5l68 540h93l62 -540q3 -22 5.5 -45.5t5 -44.5t3.5 -35l2.5 35t4 44.5t4.5 45.5l57 540h82l-86 -730h-113l-62 550q-2 23 -4.5 45t-4.5 41t-3 31q-1 -12 -3.5 -31t-4.5 -41t-5 -45
l-67 -550h-113z" />
    <glyph glyph-name="X" unicode="X" 
d="M40 0l210 370l-199 360h104l113 -216q9 -17 18.5 -36.5t15.5 -30.5q5 11 14.5 30.5t18.5 36.5l115 216h99l-199 -354l210 -376h-103l-125 232q-9 17 -18.5 36.5t-14.5 31.5q-5 -12 -14.5 -31t-18.5 -36l-126 -233h-100z" />
    <glyph glyph-name="Y" unicode="Y" 
d="M255 0v273l-220 457h93l145 -300q12 -25 19 -42.5t9 -25.5q2 8 9.5 25.5t19.5 42.5l142 300h93l-220 -457v-273h-90z" />
    <glyph glyph-name="Z" unicode="Z" 
d="M85 0v90l329 558h-324v82h415v-90l-329 -558h339v-82h-430z" />
    <glyph glyph-name="bracketleft" unicode="[" 
d="M205 -110v940h245v-80h-155v-780h155v-80h-245z" />
    <glyph glyph-name="backslash" unicode="\" 
d="M430 -110l-355 940h95l355 -940h-95z" />
    <glyph glyph-name="bracketright" unicode="]" 
d="M150 -110v80h155v780h-155v80h245v-940h-245z" />
    <glyph glyph-name="asciicircum" unicode="^" 
d="M80 340l179 390h84l177 -390h-81l-112 258q-8 20 -14.5 38.5t-9.5 28.5q-4 -10 -11 -28.5t-16 -38.5l-115 -258h-81z" />
    <glyph glyph-name="underscore" unicode="_" 
d="M60 -100v75h480v-75h-480z" />
    <glyph glyph-name="grave" unicode="`" 
d="M297 645l-115 140h100l110 -140h-95z" />
    <glyph glyph-name="a" unicode="a" 
d="M252 -10q-87 0 -137 44.5t-50 120.5q0 77 50 121t135 44h170v55q0 51 -30.5 78.5t-86.5 27.5q-49 0 -82 -20.5t-38 -55.5h-90q9 71 67 113t145 42q95 0 150 -49t55 -133v-378h-88v105h-15l15 15q0 -60 -46.5 -95t-123.5 -35zM274 61q64 0 105 32t41 82v78h-168
q-45 0 -71 -25t-26 -68q0 -46 31.5 -72.5t87.5 -26.5z" />
    <glyph glyph-name="b" unicode="b" 
d="M332 -10q-68 0 -109 36.5t-41 99.5l18 -21h-18v-105h-90v730h90v-160l-2 -125h20l-18 -21q0 62 41.5 99t108.5 37q83 0 133 -55t50 -150v-161q0 -94 -50 -149t-133 -55zM302 68q57 0 90 34t33 98v150q0 64 -33 98t-90 34q-55 0 -87.5 -35t-32.5 -97v-150q0 -62 32.5 -97
t87.5 -35z" />
    <glyph glyph-name="c" unicode="c" 
d="M304 -10q-66 0 -115.5 25t-76.5 72.5t-27 112.5v150q0 66 27 113t76.5 72t115.5 25q95 0 153 -51t61 -139h-90q-3 53 -35.5 81.5t-88.5 28.5q-59 0 -94 -33.5t-35 -95.5v-151q0 -62 35 -96t94 -34q56 0 88.5 29t35.5 81h90q-3 -88 -61 -139t-153 -51z" />
    <glyph glyph-name="d" unicode="d" 
d="M268 -10q-82 0 -132.5 55t-50.5 149v161q0 95 50 150t133 55q68 0 109 -37t41 -99l-18 21h20l-2 125v160h90v-730h-90v105h-18l18 21q0 -63 -41 -99.5t-109 -36.5zM298 68q56 0 88 35t32 97v150q0 62 -32 97t-88 35q-57 0 -90 -34t-33 -98v-150q0 -64 33 -98t90 -34z" />
    <glyph glyph-name="e" unicode="e" 
d="M300 -10q-65 0 -113.5 26t-75 73.5t-26.5 110.5v150q0 64 26.5 111t75 73t113.5 26t113.5 -26t75 -73t26.5 -111v-97h-342v-53q0 -65 33 -99.5t94 -34.5q52 0 84 18.5t39 55.5h90q-9 -69 -67.5 -109.5t-145.5 -40.5zM427 313v37q0 65 -32.5 100t-94.5 35q-61 0 -94 -35
t-33 -100v-29h261z" />
    <glyph glyph-name="f" unicode="f" 
d="M220 0v413h-160v82h160v95q0 65 41 102.5t113 37.5h161v-82h-161q-31 0 -47.5 -14.5t-16.5 -43.5v-95h225v-82h-225v-413h-90z" />
    <glyph glyph-name="g" unicode="g" 
d="M161 -180v82h175q42 0 61.5 19t19.5 59v70l2 100h-18l17 15q0 -60 -40 -95t-107 -35q-85 0 -134 55.5t-49 149.5v116q0 94 49 149t134 55q67 0 107 -35t40 -95l-17 15h17v105h89v-570q0 -74 -45.5 -117t-126.5 -43h-174zM298 113q56 0 88 35t32 97v105q0 62 -32 97
t-88 35q-57 0 -88.5 -34t-31.5 -98v-105q0 -64 31.5 -98t88.5 -34z" />
    <glyph glyph-name="h" unicode="h" 
d="M92 0v730h90v-180v-105h19l-19 -21q0 65 39 100.5t108 35.5q83 0 132 -51t49 -139v-370h-90v360q0 59 -31.5 91.5t-85.5 32.5q-56 0 -88.5 -35t-32.5 -99v-350h-90z" />
    <glyph glyph-name="i" unicode="i" 
d="M85 0v82h195v386h-170v82h260v-468h185v-82h-470zM315 649q-33 0 -52 17t-19 46q0 30 19 47.5t52 17.5t52 -17.5t19 -47.5q0 -29 -19 -46t-52 -17z" />
    <glyph glyph-name="j" unicode="j" 
d="M85 -180v83h129q62 0 96.5 33.5t34.5 94.5v437h-230v82h320v-519q0 -97 -60 -154t-161 -57h-129zM385 649q-33 0 -52 17t-19 46q0 30 19 47.5t52 17.5t52 -17.5t19 -47.5q0 -29 -19 -46t-52 -17z" />
    <glyph glyph-name="k" unicode="k" 
d="M95 0v730h90v-407h106l160 227h103l-185 -262l188 -288h-105l-160 245h-107v-245h-90z" />
    <glyph glyph-name="l" unicode="l" 
d="M375 0q-48 0 -84 19t-56 54t-20 82v493h-185v82h275v-575q0 -34 19 -53.5t51 -19.5h175v-82h-175z" />
    <glyph glyph-name="m" unicode="m" 
d="M66 0v550h79v-66h18l-14 -24q0 46 24.5 73t66.5 27q46 0 71 -34t25 -96l-27 54h42l-19 -24q0 46 25.5 73t67.5 27q52 0 80.5 -39t28.5 -103v-418h-83v419q0 34 -14.5 53t-42.5 19q-27 0 -42.5 -18.5t-15.5 -52.5v-420h-72v419q0 35 -15.5 53.5t-43.5 18.5t-42 -18.5
t-14 -52.5v-420h-83z" />
    <glyph glyph-name="n" unicode="n" 
d="M92 0v550h90v-105h19l-19 -21q0 65 39 100.5t108 35.5q83 0 132 -51t49 -139v-370h-90v360q0 59 -31.5 90.5t-85.5 31.5q-56 0 -88.5 -34t-32.5 -98v-350h-90z" />
    <glyph glyph-name="o" unicode="o" 
d="M300 -8q-66 0 -114 25t-74.5 72.5t-26.5 112.5v146q0 66 26.5 113t74.5 72t114 25t114 -25t74.5 -72t26.5 -112v-147q0 -65 -26.5 -112.5t-74.5 -72.5t-114 -25zM300 72q59 0 92 33t33 97v146q0 64 -33 97t-92 33q-58 0 -91.5 -33t-33.5 -97v-146q0 -64 33.5 -97
t91.5 -33z" />
    <glyph glyph-name="p" unicode="p" 
d="M92 -180v730h90v-105h18l-18 -21q0 63 41.5 99.5t109.5 36.5q83 0 132.5 -54.5t49.5 -149.5v-161q0 -63 -22.5 -109t-63 -71t-96.5 -25q-67 0 -109 37t-42 99l18 -21h-20l2 -125v-160h-90zM303 68q57 0 89.5 34t32.5 98v150q0 64 -32.5 98t-89.5 34q-55 0 -88 -35
t-33 -97v-150q0 -62 33 -97t88 -35z" />
    <glyph glyph-name="q" unicode="q" 
d="M418 -180v160l2 125h-20l18 21q0 -62 -41 -99t-109 -37q-83 0 -131.5 55t-48.5 150v161q0 95 49 149.5t131 54.5q68 0 109 -36.5t41 -99.5l-18 21h18v105h90v-730h-90zM298 68q56 0 88 35t32 97v150q0 62 -32 97t-88 35q-57 0 -88.5 -34t-31.5 -98v-150q0 -64 31.5 -98
t88.5 -34z" />
    <glyph glyph-name="r" unicode="r" 
d="M111 0v550h88v-105h21l-29 -65q0 89 38.5 134.5t114.5 45.5q87 0 138.5 -54.5t51.5 -147.5v-33h-90v25q0 65 -31.5 99.5t-89.5 34.5q-57 0 -89.5 -35t-32.5 -99v-350h-90z" />
    <glyph glyph-name="s" unicode="s" 
d="M283 -8q-56 0 -97.5 17.5t-66 49.5t-29.5 76h90q6 -29 32.5 -46t70.5 -17h42q53 0 79 21.5t26 57.5q0 35 -23.5 55.5t-69.5 27.5l-74 12q-81 14 -120.5 50.5t-39.5 106.5q0 74 47 114.5t141 40.5h38q79 0 127 -37t58 -100h-90q-6 26 -30 41.5t-65 15.5h-38
q-51 0 -74.5 -19t-23.5 -57q0 -34 20 -50t63 -23l74 -12q89 -14 129.5 -52t40.5 -110q0 -76 -48.5 -119.5t-146.5 -43.5h-42z" />
    <glyph glyph-name="t" unicode="t" 
d="M360 0q-71 0 -110.5 38t-39.5 107v323h-155v82h155v155h90v-155h220v-82h-220v-323q0 -63 60 -63h150v-82h-150z" />
    <glyph glyph-name="u" unicode="u" 
d="M299 -10q-95 0 -152 56.5t-57 153.5v350h90v-350q0 -62 32 -96.5t87 -34.5q56 0 88.5 34.5t32.5 96.5v350h90v-350q0 -97 -58 -153.5t-153 -56.5z" />
    <glyph glyph-name="v" unicode="v" 
d="M239 0l-184 550h92l122 -370q11 -33 20 -63.5t13 -47.5q5 17 14 47.5t19 63.5l119 370h91l-184 -550h-122z" />
    <glyph glyph-name="w" unicode="w" 
d="M123 0l-88 550h80l55 -390q3 -22 6.5 -47.5t5.5 -42.5q2 17 6.5 42.5t7.5 47.5l61 390h86l61 -390q3 -22 7.5 -47.5t6.5 -42.5q2 17 6.5 42.5t7.5 47.5l57 390h76l-92 -550h-99l-59 380q-4 28 -9 56t-7 44q-2 -16 -6 -44t-9 -56l-62 -380h-99z" />
    <glyph glyph-name="x" unicode="x" 
d="M50 0l195 283l-183 267h106l109 -170q7 -11 13.5 -24l10.5 -21q3 8 9.5 21t13.5 24l110 170h105l-183 -268l194 -282h-106l-118 180q-7 11 -13.5 25.5t-11.5 23.5q-4 -9 -11.5 -23.5t-15.5 -25.5l-119 -180h-105z" />
    <glyph glyph-name="y" unicode="y" 
d="M178 -180l81 214l-204 516h100l128 -340q7 -17 13 -40.5t10 -39.5q4 16 10 39.5t12 40.5l120 340h97l-271 -730h-96z" />
    <glyph glyph-name="z" unicode="z" 
d="M90 0v90l308 378h-300v82h401v-90l-314 -378h325v-82h-420z" />
    <glyph glyph-name="braceleft" unicode="{" 
d="M470 -110q-59 0 -101.5 19.5t-64.5 57t-19 89.5l10 164q3 53 -16 76.5t-84 23.5h-110v80h110q65 0 84 23.5t16 76.5l-10 164q-3 53 19 90t64.5 56.5t101.5 19.5h45v-80h-45q-47 0 -72 -21.5t-23 -64.5l10 -164q4 -65 -31 -103.5t-99 -38.5v5q63 0 98.5 -39t31.5 -104
l-10 -164q-2 -43 23 -64.5t72 -21.5h45v-80h-45z" />
    <glyph glyph-name="bar" unicode="|" 
d="M255 -110v940h90v-940h-90z" />
    <glyph glyph-name="braceright" unicode="}" 
d="M85 -110v80h45q47 0 72 21.5t23 64.5l-10 164q-4 65 31.5 104t98.5 39v-5q-64 0 -99 38.5t-31 103.5l10 164q2 43 -23 64.5t-72 21.5h-45v80h45q59 0 101.5 -19.5t64.5 -56.5t19 -90l-10 -164q-3 -53 16 -76.5t84 -23.5h110v-80h-110q-64 0 -83.5 -23.5t-16.5 -76.5
l10 -164q3 -52 -19 -89.5t-64.5 -57t-101.5 -19.5h-45z" />
    <glyph glyph-name="asciitilde" unicode="~" 
d="M65 255v70q0 59 36 94.5t94 35.5q37 0 63 -13t44.5 -32.5t33.5 -39t31 -32.5t36 -13q23 0 35 14t12 41v70h85v-70q0 -58 -35.5 -94t-94.5 -36q-37 0 -63 13t-44.5 32.5t-33.5 39t-31 32.5t-36 13q-22 0 -34.5 -14t-12.5 -41v-70h-85z" />
    <glyph glyph-name="uni00A0" unicode="&#xa0;" 
 />
    <glyph glyph-name="exclamdown" unicode="&#xa1;" 
d="M247 -180v125l21 391h64l21 -391v-125h-106zM290 436q-29 0 -47 17t-18 44t18 43t47 16h20q29 0 47 -15.5t18 -42.5q0 -28 -18 -45t-47 -17h-20z" />
    <glyph glyph-name="cent" unicode="&#xa2;" 
d="M280 -140v830h60v-830h-60zM304 -10q-66 0 -115.5 25t-76.5 72.5t-27 112.5v150q0 66 27 113t76.5 72t115.5 25q95 0 153 -51t61 -139h-90q-3 53 -35.5 81.5t-88.5 28.5q-59 0 -94 -33.5t-35 -95.5v-151q0 -62 35 -96t94 -34q56 0 88.5 29t35.5 81h90q-3 -88 -61 -139
t-153 -51z" />
    <glyph glyph-name="sterling" unicode="&#xa3;" 
d="M75 0v100q24 19 49 45.5t42.5 55t17.5 53.5q0 43 -10 74.5t-24.5 57.5t-29 50t-24.5 52.5t-10 66.5q0 57 26 98.5t74 64t114 22.5t114 -22.5t74 -65t27 -102.5h-95q0 50 -33 80t-88 30q-58 0 -90 -28.5t-32 -81.5q0 -31 10 -54.5t24.5 -45.5t29 -47t24.5 -58.5t10 -81.5
q0 -43 -17.5 -79.5t-43 -63t-49.5 -40.5h370v-80h-460zM75 305v80h360v-80h-360z" />
    <glyph glyph-name="currency" unicode="&#xa4;" 
d="M495 113l-87 87q-22 -14 -49.5 -21.5t-57.5 -7.5q-31 0 -58.5 7.5t-50.5 21.5l-85 -85l-62 62l83 84q-16 23 -24.5 52t-8.5 60q0 32 9 60.5t25 52.5l-86 86l63 63l88 -88q23 14 50 21t57 7q63 0 111 -31l84 84l61 -61l-83 -83q15 -24 23 -52t8 -59t-8.5 -59.5
t-23.5 -52.5l85 -85zM301 240q37 0 66.5 17.5t46.5 47.5t17 68t-17 68t-46.5 47.5t-66.5 17.5t-67 -17.5t-47.5 -47.5t-17.5 -68t17.5 -68t47.5 -47.5t67 -17.5z" />
    <glyph glyph-name="yen" unicode="&#xa5;" 
d="M60 270v75h480v-75h-480zM60 120v75h480v-75h-480zM255 0v273l-220 457h93l145 -300q12 -25 19 -42.5t9 -25.5q2 8 9.5 25.5t19.5 42.5l142 300h93l-220 -457v-273h-90z" />
    <glyph glyph-name="brokenbar" unicode="&#xa6;" 
d="M255 450v380h90v-380h-90zM255 -110v380h90v-380h-90z" />
    <glyph glyph-name="section" unicode="&#xa7;" 
d="M285 -154q-54 0 -98.5 19.5t-73 54t-36.5 80.5h95q9 -33 40 -53.5t73 -20.5h30q57 0 87 23.5t30 62.5q0 36 -25.5 59.5t-75.5 33.5l-92 19q-69 14 -111 58.5t-42 102.5q0 57 37 98t92 46v7q-27 0 -56 13.5t-49 45t-20 84.5q0 74 52.5 117.5t146.5 43.5h30q79 0 133.5 -40
t64.5 -105h-95q-7 29 -35.5 47t-67.5 18h-30q-51 0 -79.5 -22t-28.5 -60q0 -32 25.5 -55.5t71.5 -33.5l90 -19q71 -15 112 -58t41 -104q0 -58 -36.5 -98t-96.5 -40v-7q29 -1 60.5 -17t53 -48t21.5 -83q0 -78 -55 -123.5t-153 -45.5h-30zM330 185q30 -6 52.5 8t35 42.5
t12.5 63.5t-22 61.5t-57 33.5l-74 15q-30 6 -52.5 -7.5t-35 -40.5t-12.5 -61q0 -38 21.5 -65.5t55.5 -34.5z" />
    <glyph glyph-name="dieresis" unicode="&#xa8;" 
d="M411 649q-29 0 -46.5 17t-17.5 46q0 30 17.5 47.5t46.5 17.5t46.5 -17.5t17.5 -47.5q0 -29 -17.5 -46t-46.5 -17zM189 649q-29 0 -46.5 17t-17.5 46q0 30 17.5 47.5t46.5 17.5t46.5 -17.5t17.5 -47.5q0 -29 -17.5 -46t-46.5 -17z" />
    <glyph glyph-name="copyright" unicode="&#xa9;" 
d="M300 110q-76 0 -133.5 30t-89.5 84t-32 126v150q0 72 32 126t89.5 84t133.5 30q77 0 134 -30t89 -84t32 -126v-150q0 -72 -32 -126t-89 -84t-134 -30zM300 160q60 0 105 23.5t70 66.5t25 100v150q0 57 -25 99.5t-70 66.5t-105 24t-105 -24t-70 -66.5t-25 -99.5v-150
q0 -57 25 -100t70 -66.5t105 -23.5zM305 245q-56 0 -90.5 31.5t-34.5 83.5v130q0 52 34.5 83.5t90.5 31.5t90 -31.5t34 -83.5h-65q0 27 -16.5 43.5t-42.5 16.5q-27 0 -43.5 -16.5t-16.5 -43.5v-130q0 -27 16.5 -43.5t43.5 -16.5q26 0 42.5 16.5t16.5 43.5h65
q0 -52 -34 -83.5t-90 -31.5z" />
    <glyph glyph-name="ordfeminine" unicode="&#xaa;" 
d="M373 455v55h-3v140q0 23 -17.5 36.5t-47.5 13.5q-26 0 -44 -11t-21 -29h-50q5 38 35.5 59t79.5 21q53 0 84 -24t31 -66v-195h-47zM274 450q-45 0 -72 23.5t-27 62.5t28 62t77 23h101v-40h-101q-26 0 -40.5 -12t-14.5 -33q0 -22 17 -35t45 -13q39 0 61 18t22 49h11v-45
h-11q-10 -28 -35.5 -44t-60.5 -16z" />
    <glyph glyph-name="guillemotleft" unicode="&#xab;" 
d="M465 40l-202 240l201 240h106l-206 -238l206 -242h-105zM232 40l-202 240l201 240h106l-206 -238l206 -242h-105z" />
    <glyph glyph-name="logicalnot" unicode="&#xac;" 
d="M445 205v130h-375v80h460v-210h-85z" />
    <glyph glyph-name="uni00AD" unicode="&#xad;" 
d="M140 290v80h320v-80h-320z" />
    <glyph glyph-name="registered" unicode="&#xae;" 
d="M300 110q-76 0 -133.5 30t-89.5 84t-32 126v150q0 72 32 126t89.5 84t133.5 30q77 0 134 -30t89 -84t32 -126v-150q0 -72 -32 -126t-89 -84t-134 -30zM363 250l-64 153h61l67 -153h-64zM300 160q60 0 105 23.5t70 66.5t25 100v150q0 57 -25 99.5t-70 66.5t-105 24
t-105 -24t-70 -66.5t-25 -99.5v-150q0 -57 25 -100t70 -66.5t105 -23.5zM190 250v350h114q54 0 85.5 -28.5t31.5 -76.5t-31.5 -76.5t-85.5 -28.5h-54v-140h-60zM250 440h54q26 0 41 14.5t15 40.5t-15 40.5t-41 14.5h-54v-110z" />
    <glyph glyph-name="macron" unicode="&#xaf;" 
d="M140 670v75h320v-75h-320z" />
    <glyph glyph-name="degree" unicode="&#xb0;" 
d="M300 450q-67 0 -108.5 40t-41.5 105t41.5 105t108.5 40q68 0 109 -40t41 -105t-41 -105t-109 -40zM299 501q41 0 66 26t25 68q0 43 -25 69t-66 26q-40 0 -64.5 -26t-24.5 -69q0 -42 24.5 -68t64.5 -26z" />
    <glyph glyph-name="plusminus" unicode="&#xb1;" 
d="M70 0v70h186v225h-191v80h191v195h88v-195h191v-80h-191v-225h186v-70h-460z" />
    <glyph glyph-name="uni00B2" unicode="&#xb2;" 
d="M166 405v87l162 121q22 16 34.5 38.5t12.5 44.5q0 38 -21 59.5t-56 21.5t-56 -21.5t-21 -59.5h-70q3 66 43 105t104 39q68 0 107 -38.5t39 -103.5q0 -35 -21 -71t-58 -63l-128 -95h218v-64h-289z" />
    <glyph glyph-name="uni00B3" unicode="&#xb3;" 
d="M284 395q-68 0 -108 38t-40 102h69q0 -35 21 -56t58 -21q35 0 55.5 21t20.5 56t-20 55.5t-55 20.5h-30v67l93 89h-183v64h240v-79l-117 -111v28q66 0 105 -36t39 -98q0 -64 -40 -102t-108 -38z" />
    <glyph glyph-name="acute" unicode="&#xb4;" 
d="M212 645l106 140h97l-111 -140h-92z" />
    <glyph glyph-name="uni00B5" unicode="&#xb5;" 
d="M90 -180v730h90v-356q0 -60 28.5 -92.5t90.5 -32.5q63 0 92 32.5t29 92.5v356h90v-356q0 -96 -53 -150t-148 -54q-47 0 -79.5 12.5t-51 30.5t-23.5 34h-4q1 0 5 -13.5t7.5 -32t4.5 -34.5l11 -167h-89z" />
    <glyph glyph-name="paragraph" unicode="&#xb6;" 
d="M255 -180v490q-85 0 -137.5 47t-52.5 123v80q0 77 52.5 123.5t137.5 46.5h80v-910h-80zM425 -180v910h80v-910h-80z" />
    <glyph glyph-name="periodcentered" unicode="&#xb7;" 
d="M300 260q-38 0 -60.5 22t-22.5 59q0 39 22.5 62t60.5 23t60.5 -23t22.5 -62q0 -37 -22.5 -59t-60.5 -22z" />
    <glyph glyph-name="cedilla" unicode="&#xb8;" 
d="M205 -203v55h70q22 0 35.5 11.5t13.5 24.5q0 17 -27.5 30t-77.5 13l35 95h57l-21 -61q26 -3 54 -13t47 -28t19 -44q0 -34 -33 -58.5t-87 -24.5h-85z" />
    <glyph glyph-name="uni00B9" unicode="&#xb9;" 
d="M155 405v64h131v298l-122 -87v79l97 71h95v-361h104v-64h-305z" />
    <glyph glyph-name="ordmasculine" unicode="&#xba;" 
d="M300 445q-52 0 -83.5 29t-31.5 76v80q0 47 31.5 76t83.5 29t83.5 -29t31.5 -76v-80q0 -47 -31.5 -76t-83.5 -29zM300 485q29 0 47 18t18 47v80q0 29 -18 47t-47 18t-47 -18t-18 -47v-80q0 -29 18 -47t47 -18z" />
    <glyph glyph-name="guillemotright" unicode="&#xbb;" 
d="M264 40l202 241l-203 239h105l202 -240l-201 -240h-105zM31 40l202 241l-203 239h105l202 -240l-201 -240h-105z" />
    <glyph glyph-name="onequarter" unicode="&#xbc;" 
d="M30 405v50h118v236q-4 -7 -13 -17.5t-20 -20.5l-62 -54v70l70 61h85v-275h97v-50h-275zM480 0v70h-175v80l126 175h69l-135 -189v-16h115v89h60v-209h-60zM90 0l357 730h63l-357 -730h-63z" />
    <glyph glyph-name="onehalf" unicode="&#xbd;" 
d="M315 0v64l120 69q35 20 52.5 40.5t17.5 42.5q0 29 -18 46.5t-47 17.5t-47 -17.5t-18 -46.5h-60q2 52 36.5 83t88.5 31q56 0 90.5 -31t34.5 -81q0 -31 -22.5 -61t-63.5 -53l-93 -52v-10q11 2 32 5t43 3h109v-50h-255zM30 405v50h118v236q-4 -7 -13 -17.5t-20 -20.5
l-62 -54v70l70 61h85v-275h107v-50h-285zM90 0l357 730h63l-357 -730h-63z" />
    <glyph glyph-name="threequarters" unicode="&#xbe;" 
d="M480 0v70h-175v80l126 175h69l-135 -189v-16h115v89h60v-209h-60zM154 400q-58 0 -93 29t-35 76h60q0 -25 18.5 -40t49.5 -15q30 0 48.5 15t18.5 40t-18.5 40t-47.5 15h-30v57l81 63h-156v50h215v-55l-107 -83v18q55 0 89 -29t34 -76t-35 -76t-92 -29zM90 0l357 730h63
l-357 -730h-63z" />
    <glyph glyph-name="questiondown" unicode="&#xbf;" 
d="M340 -170q-71 0 -122.5 25.5t-79.5 73t-28 111.5q0 57 23.5 101t66 70t99.5 29v105h90v-180h-50q-64 0 -101.5 -33t-37.5 -92q0 -58 37.5 -91.5t102.5 -33.5h125v-85h-125zM335 435q-29 0 -47 17t-18 44t18 43t47 16h20q29 0 47 -15.5t18 -42.5q0 -28 -18 -45t-47 -17
h-20z" />
    <glyph glyph-name="Agrave" unicode="&#xc0;" 
d="M50 0l190 730h121l189 -730h-91l-48 194h-221l-48 -194h-92zM208 270h184l-56 225q-16 64 -25 107t-11 56q-2 -13 -11 -56t-25 -106zM267 810l-115 140h100l110 -140h-95z" />
    <glyph glyph-name="Aacute" unicode="&#xc1;" 
d="M50 0l190 730h121l189 -730h-91l-48 194h-221l-48 -194h-92zM208 270h184l-56 225q-16 64 -25 107t-11 56q-2 -13 -11 -56t-25 -106zM242 810l106 140h97l-111 -140h-92z" />
    <glyph glyph-name="Acircumflex" unicode="&#xc2;" 
d="M50 0l190 730h121l189 -730h-91l-48 194h-221l-48 -194h-92zM208 270h184l-56 225q-16 64 -25 107t-11 56q-2 -13 -11 -56t-25 -106zM119 810l139 140h83l140 -140h-99l-82 78l-80 -78h-101z" />
    <glyph glyph-name="Atilde" unicode="&#xc3;" 
d="M50 0l190 730h121l189 -730h-91l-48 194h-221l-48 -194h-92zM208 270h184l-56 225q-16 64 -25 107t-11 56q-2 -13 -11 -56t-25 -106zM370 815q-30 0 -49 10.5t-32 24.5t-25 24.5t-29 10.5q-13 0 -21.5 -8.5t-8.5 -26.5v-30h-65v30q0 45 25 70t65 25q30 0 49 -10.5
t32 -24.5t25 -24.5t29 -10.5q14 0 22 8.5t8 26.5v30h65v-30q0 -45 -24.5 -70t-65.5 -25z" />
    <glyph glyph-name="Adieresis" unicode="&#xc4;" 
d="M50 0l190 730h121l189 -730h-91l-48 194h-221l-48 -194h-92zM208 270h184l-56 225q-16 64 -25 107t-11 56q-2 -13 -11 -56t-25 -106zM411 817q-29 0 -46.5 17t-17.5 46q0 30 17.5 47.5t46.5 17.5t46.5 -17.5t17.5 -47.5q0 -29 -17.5 -46t-46.5 -17zM189 817
q-29 0 -46.5 17t-17.5 46q0 30 17.5 47.5t46.5 17.5t46.5 -17.5t17.5 -47.5q0 -29 -17.5 -46t-46.5 -17z" />
    <glyph glyph-name="Aring" unicode="&#xc5;" 
d="M50 0l190 730h121l189 -730h-91l-48 194h-221l-48 -194h-92zM208 270h184l-56 225q-16 64 -25 107t-11 56q-2 -13 -11 -56t-25 -106zM300 766q-54 0 -87 31.5t-33 82.5t33 82.5t87 31.5t87 -31.5t33 -82.5t-33 -82.5t-87 -31.5zM300 819q27 0 43.5 16.5t16.5 44.5
t-16.5 45t-43.5 17t-43.5 -17t-16.5 -45t16.5 -44.5t43.5 -16.5z" />
    <glyph glyph-name="AE" unicode="&#xc6;" 
d="M30 0l145 730h395v-82h-182v-228h157v-82h-157v-256h182v-82h-268v203h-141l-40 -203h-91zM175 278h127v370h-56z" />
    <glyph glyph-name="Ccedilla" unicode="&#xc7;" 
d="M210 -203v55h70q22 0 35.5 11.5t13.5 24.5q0 17 -27.5 30t-77.5 13l35 95h57l-21 -61q26 -3 54 -13t47 -28t19 -44q0 -34 -33 -58.5t-87 -24.5h-85zM304 -10q-66 0 -114.5 25t-75 72.5t-26.5 112.5v330q0 66 26.5 113t75 72t114.5 25t114 -25.5t74 -72.5t26 -112h-90
q0 62 -32.5 95.5t-91.5 33.5t-92.5 -33t-33.5 -95v-331q0 -62 33.5 -95.5t92.5 -33.5t91.5 33.5t32.5 95.5h90q0 -64 -26 -111.5t-74 -73t-114 -25.5z" />
    <glyph glyph-name="Egrave" unicode="&#xc8;" 
d="M100 0v730h420v-82h-331v-226h296v-81h-296v-259h331v-82h-420zM287 810l-115 140h100l110 -140h-95z" />
    <glyph glyph-name="Eacute" unicode="&#xc9;" 
d="M100 0v730h420v-82h-331v-226h296v-81h-296v-259h331v-82h-420zM262 810l106 140h97l-111 -140h-92z" />
    <glyph glyph-name="Ecircumflex" unicode="&#xca;" 
d="M100 0v730h420v-82h-331v-226h296v-81h-296v-259h331v-82h-420zM139 810l139 140h83l140 -140h-99l-82 78l-80 -78h-101z" />
    <glyph glyph-name="Edieresis" unicode="&#xcb;" 
d="M100 0v730h420v-82h-331v-226h296v-81h-296v-259h331v-82h-420zM431 817q-29 0 -46.5 17t-17.5 46q0 30 17.5 47.5t46.5 17.5t46.5 -17.5t17.5 -47.5q0 -29 -17.5 -46t-46.5 -17zM209 817q-29 0 -46.5 17t-17.5 46q0 30 17.5 47.5t46.5 17.5t46.5 -17.5t17.5 -47.5
q0 -29 -17.5 -46t-46.5 -17z" />
    <glyph glyph-name="Igrave" unicode="&#xcc;" 
d="M105 0v82h149v566h-149v82h390v-82h-149v-566h149v-82h-390zM267 810l-115 140h100l110 -140h-95z" />
    <glyph glyph-name="Iacute" unicode="&#xcd;" 
d="M105 0v82h149v566h-149v82h390v-82h-149v-566h149v-82h-390zM242 810l106 140h97l-111 -140h-92z" />
    <glyph glyph-name="Icircumflex" unicode="&#xce;" 
d="M105 0v82h149v566h-149v82h390v-82h-149v-566h149v-82h-390zM119 810l139 140h83l140 -140h-99l-82 78l-80 -78h-101z" />
    <glyph glyph-name="Idieresis" unicode="&#xcf;" 
d="M105 0v82h149v566h-149v82h390v-82h-149v-566h149v-82h-390zM411 817q-29 0 -46.5 17t-17.5 46q0 30 17.5 47.5t46.5 17.5t46.5 -17.5t17.5 -47.5q0 -29 -17.5 -46t-46.5 -17zM189 817q-29 0 -46.5 17t-17.5 46q0 30 17.5 47.5t46.5 17.5t46.5 -17.5t17.5 -47.5
q0 -29 -17.5 -46t-46.5 -17z" />
    <glyph glyph-name="Eth" unicode="&#xd0;" 
d="M10 335v75h280v-75h-280zM92 0v730h189q71 0 122.5 -27t80 -76t28.5 -116v-291q0 -67 -28.5 -116.5t-80 -76.5t-122.5 -27h-189zM182 80h99q66 0 103.5 37t37.5 103v291q0 65 -37.5 102t-103.5 37h-99v-570z" />
    <glyph glyph-name="Ntilde" unicode="&#xd1;" 
d="M90 0v730h120l223 -625q-2 25 -4.5 61.5t-4 77t-1.5 76.5v410h87v-730h-120l-222 625q2 -24 4 -60.5t3.5 -77t1.5 -77.5v-410h-87zM370 815q-30 0 -49 10.5t-32 24.5t-25 24.5t-29 10.5q-13 0 -21.5 -8.5t-8.5 -26.5v-30h-65v30q0 45 25 70t65 25q30 0 49 -10.5t32 -24.5
t25 -24.5t29 -10.5q14 0 22 8.5t8 26.5v30h65v-30q0 -45 -24.5 -70t-65.5 -25z" />
    <glyph glyph-name="Ograve" unicode="&#xd2;" 
d="M300 -10q-66 0 -113.5 25t-73 72.5t-25.5 112.5v330q0 66 25.5 113t73 72t113.5 25t113.5 -25t73 -72t25.5 -112v-331q0 -65 -25.5 -112.5t-73 -72.5t-113.5 -25zM300 71q59 0 90.5 33.5t31.5 95.5v330q0 62 -31.5 95.5t-90.5 33.5q-58 0 -90 -33.5t-32 -95.5v-330
q0 -62 32 -95.5t90 -33.5zM267 810l-115 140h100l110 -140h-95z" />
    <glyph glyph-name="Oacute" unicode="&#xd3;" 
d="M300 -10q-66 0 -113.5 25t-73 72.5t-25.5 112.5v330q0 66 25.5 113t73 72t113.5 25t113.5 -25t73 -72t25.5 -112v-331q0 -65 -25.5 -112.5t-73 -72.5t-113.5 -25zM300 71q59 0 90.5 33.5t31.5 95.5v330q0 62 -31.5 95.5t-90.5 33.5q-58 0 -90 -33.5t-32 -95.5v-330
q0 -62 32 -95.5t90 -33.5zM242 810l106 140h97l-111 -140h-92z" />
    <glyph glyph-name="Ocircumflex" unicode="&#xd4;" 
d="M300 -10q-66 0 -113.5 25t-73 72.5t-25.5 112.5v330q0 66 25.5 113t73 72t113.5 25t113.5 -25t73 -72t25.5 -112v-331q0 -65 -25.5 -112.5t-73 -72.5t-113.5 -25zM300 71q59 0 90.5 33.5t31.5 95.5v330q0 62 -31.5 95.5t-90.5 33.5q-58 0 -90 -33.5t-32 -95.5v-330
q0 -62 32 -95.5t90 -33.5zM119 810l139 140h83l140 -140h-99l-82 78l-80 -78h-101z" />
    <glyph glyph-name="Otilde" unicode="&#xd5;" 
d="M300 -10q-66 0 -113.5 25t-73 72.5t-25.5 112.5v330q0 66 25.5 113t73 72t113.5 25t113.5 -25t73 -72t25.5 -112v-331q0 -65 -25.5 -112.5t-73 -72.5t-113.5 -25zM300 71q59 0 90.5 33.5t31.5 95.5v330q0 62 -31.5 95.5t-90.5 33.5q-58 0 -90 -33.5t-32 -95.5v-330
q0 -62 32 -95.5t90 -33.5zM370 815q-30 0 -49 10.5t-32 24.5t-25 24.5t-29 10.5q-13 0 -21.5 -8.5t-8.5 -26.5v-30h-65v30q0 45 25 70t65 25q30 0 49 -10.5t32 -24.5t25 -24.5t29 -10.5q14 0 22 8.5t8 26.5v30h65v-30q0 -45 -24.5 -70t-65.5 -25z" />
    <glyph glyph-name="Odieresis" unicode="&#xd6;" 
d="M300 -10q-66 0 -113.5 25t-73 72.5t-25.5 112.5v330q0 66 25.5 113t73 72t113.5 25t113.5 -25t73 -72t25.5 -112v-331q0 -65 -25.5 -112.5t-73 -72.5t-113.5 -25zM300 71q59 0 90.5 33.5t31.5 95.5v330q0 62 -31.5 95.5t-90.5 33.5q-58 0 -90 -33.5t-32 -95.5v-330
q0 -62 32 -95.5t90 -33.5zM411 817q-29 0 -46.5 17t-17.5 46q0 30 17.5 47.5t46.5 17.5t46.5 -17.5t17.5 -47.5q0 -29 -17.5 -46t-46.5 -17zM189 817q-29 0 -46.5 17t-17.5 46q0 30 17.5 47.5t46.5 17.5t46.5 -17.5t17.5 -47.5q0 -29 -17.5 -46t-46.5 -17z" />
    <glyph glyph-name="multiply" unicode="&#xd7;" 
d="M156 136l-51 52l141 141l-141 142l51 51l142 -141l145 145l51 -52l-145 -145l142 -141l-52 -52l-141 142z" />
    <glyph glyph-name="Oslash" unicode="&#xd8;" 
d="M35 -40l446 790h84l-446 -790h-84zM300 -10q-66 0 -113.5 25t-73 72.5t-25.5 112.5v330q0 66 25.5 113t73 72t113.5 25t113.5 -25t73 -72t25.5 -112v-331q0 -65 -25.5 -112.5t-73 -72.5t-113.5 -25zM300 71q59 0 90.5 33.5t31.5 95.5v330q0 62 -31.5 95.5t-90.5 33.5
q-58 0 -90 -33.5t-32 -95.5v-330q0 -62 32 -95.5t90 -33.5z" />
    <glyph glyph-name="Ugrave" unicode="&#xd9;" 
d="M300 -10q-102 0 -156 56.5t-54 153.5v530h90v-530q0 -60 29.5 -95t90.5 -35q60 0 90 35t30 95v530h90v-530q0 -98 -53.5 -154t-156.5 -56zM267 810l-115 140h100l110 -140h-95z" />
    <glyph glyph-name="Uacute" unicode="&#xda;" 
d="M300 -10q-102 0 -156 56.5t-54 153.5v530h90v-530q0 -60 29.5 -95t90.5 -35q60 0 90 35t30 95v530h90v-530q0 -98 -53.5 -154t-156.5 -56zM242 810l106 140h97l-111 -140h-92z" />
    <glyph glyph-name="Ucircumflex" unicode="&#xdb;" 
d="M300 -10q-102 0 -156 56.5t-54 153.5v530h90v-530q0 -60 29.5 -95t90.5 -35q60 0 90 35t30 95v530h90v-530q0 -98 -53.5 -154t-156.5 -56zM119 810l139 140h83l140 -140h-99l-82 78l-80 -78h-101z" />
    <glyph glyph-name="Udieresis" unicode="&#xdc;" 
d="M300 -10q-102 0 -156 56.5t-54 153.5v530h90v-530q0 -60 29.5 -95t90.5 -35q60 0 90 35t30 95v530h90v-530q0 -98 -53.5 -154t-156.5 -56zM411 817q-29 0 -46.5 17t-17.5 46q0 30 17.5 47.5t46.5 17.5t46.5 -17.5t17.5 -47.5q0 -29 -17.5 -46t-46.5 -17zM189 817
q-29 0 -46.5 17t-17.5 46q0 30 17.5 47.5t46.5 17.5t46.5 -17.5t17.5 -47.5q0 -29 -17.5 -46t-46.5 -17z" />
    <glyph glyph-name="Yacute" unicode="&#xdd;" 
d="M255 0v273l-220 457h93l145 -300q12 -25 19 -42.5t9 -25.5q2 8 9.5 25.5t19.5 42.5l142 300h93l-220 -457v-273h-90zM242 810l106 140h97l-111 -140h-92z" />
    <glyph glyph-name="Thorn" unicode="&#xde;" 
d="M90 0v730h90v-150h153q66 0 114.5 -25t75.5 -70t27 -105q0 -91 -59 -145.5t-158 -54.5h-153v-180h-90zM180 260h153q58 0 91 32.5t33 87.5q0 56 -33.5 88t-90.5 32h-153v-240z" />
    <glyph glyph-name="germandbls" unicode="&#xdf;" 
d="M92 0v534q0 62 26 108.5t73.5 72t111.5 25.5t112 -21.5t74.5 -63t26.5 -101.5q0 -50 -21.5 -89t-61 -61t-93.5 -21v15q58 1 100.5 -22t66 -66t23.5 -102q0 -61 -27 -108t-75 -73.5t-113 -26.5h-66v82h56q60 0 95 35.5t35 93.5t-34.5 91t-95.5 33h-44v78h42q56 0 87.5 35
t31.5 88q0 58 -32 90t-87 32t-88 -33t-33 -91v-534h-90z" />
    <glyph glyph-name="agrave" unicode="&#xe0;" 
d="M252 -10q-87 0 -137 44.5t-50 120.5q0 77 50 121t135 44h170v55q0 51 -30.5 78.5t-86.5 27.5q-49 0 -82 -20.5t-38 -55.5h-90q9 71 67 113t145 42q95 0 150 -49t55 -133v-378h-88v105h-15l15 15q0 -60 -46.5 -95t-123.5 -35zM274 61q64 0 105 32t41 82v78h-168
q-45 0 -71 -25t-26 -68q0 -46 31.5 -72.5t87.5 -26.5zM272 645l-115 140h100l110 -140h-95z" />
    <glyph glyph-name="aacute" unicode="&#xe1;" 
d="M252 -10q-87 0 -137 44.5t-50 120.5q0 77 50 121t135 44h170v55q0 51 -30.5 78.5t-86.5 27.5q-49 0 -82 -20.5t-38 -55.5h-90q9 71 67 113t145 42q95 0 150 -49t55 -133v-378h-88v105h-15l15 15q0 -60 -46.5 -95t-123.5 -35zM274 61q64 0 105 32t41 82v78h-168
q-45 0 -71 -25t-26 -68q0 -46 31.5 -72.5t87.5 -26.5zM247 645l106 140h97l-111 -140h-92z" />
    <glyph glyph-name="acircumflex" unicode="&#xe2;" 
d="M252 -10q-87 0 -137 44.5t-50 120.5q0 77 50 121t135 44h170v55q0 51 -30.5 78.5t-86.5 27.5q-49 0 -82 -20.5t-38 -55.5h-90q9 71 67 113t145 42q95 0 150 -49t55 -133v-378h-88v105h-15l15 15q0 -60 -46.5 -95t-123.5 -35zM274 61q64 0 105 32t41 82v78h-168
q-45 0 -71 -25t-26 -68q0 -46 31.5 -72.5t87.5 -26.5zM124 645l139 140h83l140 -140h-99l-82 78l-80 -78h-101z" />
    <glyph glyph-name="atilde" unicode="&#xe3;" 
d="M252 -10q-87 0 -137 44.5t-50 120.5q0 77 50 121t135 44h170v55q0 51 -30.5 78.5t-86.5 27.5q-49 0 -82 -20.5t-38 -55.5h-90q9 71 67 113t145 42q95 0 150 -49t55 -133v-378h-88v105h-15l15 15q0 -60 -46.5 -95t-123.5 -35zM274 61q64 0 105 32t41 82v78h-168
q-45 0 -71 -25t-26 -68q0 -46 31.5 -72.5t87.5 -26.5zM375 650q-30 0 -49 10.5t-32 24.5t-25 24.5t-29 10.5q-13 0 -21.5 -8.5t-8.5 -26.5v-30h-65v30q0 45 25 70t65 25q30 0 49 -10.5t32 -24.5t25 -24.5t29 -10.5q14 0 22 8.5t8 26.5v30h65v-30q0 -45 -24.5 -70t-65.5 -25z
" />
    <glyph glyph-name="adieresis" unicode="&#xe4;" 
d="M252 -10q-87 0 -137 44.5t-50 120.5q0 77 50 121t135 44h170v55q0 51 -30.5 78.5t-86.5 27.5q-49 0 -82 -20.5t-38 -55.5h-90q9 71 67 113t145 42q95 0 150 -49t55 -133v-378h-88v105h-15l15 15q0 -60 -46.5 -95t-123.5 -35zM274 61q64 0 105 32t41 82v78h-168
q-45 0 -71 -25t-26 -68q0 -46 31.5 -72.5t87.5 -26.5zM416 649q-29 0 -46.5 17t-17.5 46q0 30 17.5 47.5t46.5 17.5t46.5 -17.5t17.5 -47.5q0 -29 -17.5 -46t-46.5 -17zM194 649q-29 0 -46.5 17t-17.5 46q0 30 17.5 47.5t46.5 17.5t46.5 -17.5t17.5 -47.5q0 -29 -17.5 -46
t-46.5 -17z" />
    <glyph glyph-name="aring" unicode="&#xe5;" 
d="M252 -10q-87 0 -137 44.5t-50 120.5q0 77 50 121t135 44h170v55q0 51 -30.5 78.5t-86.5 27.5q-49 0 -82 -20.5t-38 -55.5h-90q9 71 67 113t145 42q95 0 150 -49t55 -133v-378h-88v105h-15l15 15q0 -60 -46.5 -95t-123.5 -35zM274 61q64 0 105 32t41 82v78h-168
q-45 0 -71 -25t-26 -68q0 -46 31.5 -72.5t87.5 -26.5zM305 608q-54 0 -87 31.5t-33 82.5t33 82.5t87 31.5t87 -31.5t33 -82.5t-33 -82.5t-87 -31.5zM305 661q27 0 43.5 16.5t16.5 44.5t-16.5 45t-43.5 17t-43.5 -17t-16.5 -45t16.5 -44.5t43.5 -16.5z" />
    <glyph glyph-name="ae" unicode="&#xe6;" 
d="M170 -10q-62 0 -98.5 38t-36.5 102v60q0 62 41.5 98.5t111.5 36.5h74v74q0 44 -16 64t-51 20q-28 0 -45.5 -17t-17.5 -46h-85q0 63 36.5 101.5t96.5 38.5q39 0 65 -13t39.5 -31.5t16.5 -35.5h4q3 17 16 35.5t37.5 31.5t61.5 13q68 0 106.5 -43t38.5 -117v-145h-222v-105
q0 -37 18.5 -60t48.5 -23q32 0 51 17t19 46h85q0 -63 -40 -101.5t-105 -38.5q-37 0 -62 13t-37.5 31.5t-15.5 35.5h-4q-3 -17 -18 -35.5t-42.5 -31.5t-70.5 -13zM190 67q32 0 52 23t20 60v105h-72q-31 0 -48 -17.5t-17 -47.5v-60q0 -29 17.5 -46t47.5 -17zM343 325h137v75
q0 38 -18.5 60.5t-51.5 22.5q-31 0 -49 -22.5t-18 -60.5v-75z" />
    <glyph glyph-name="ccedilla" unicode="&#xe7;" 
d="M209 -203v55h70q22 0 35.5 11.5t13.5 24.5q0 17 -27.5 30t-77.5 13l35 95h57l-21 -61q26 -3 54 -13t47 -28t19 -44q0 -34 -33 -58.5t-87 -24.5h-85zM304 -10q-66 0 -115.5 25t-76.5 72.5t-27 112.5v150q0 66 27 113t76.5 72t115.5 25q95 0 153 -51t61 -139h-90
q-3 53 -35.5 81.5t-88.5 28.5q-59 0 -94 -33.5t-35 -95.5v-151q0 -62 35 -96t94 -34q56 0 88.5 29t35.5 81h90q-3 -88 -61 -139t-153 -51z" />
    <glyph glyph-name="egrave" unicode="&#xe8;" 
d="M300 -10q-65 0 -113.5 26t-75 73.5t-26.5 110.5v150q0 64 26.5 111t75 73t113.5 26t113.5 -26t75 -73t26.5 -111v-97h-342v-53q0 -65 33 -99.5t94 -34.5q52 0 84 18.5t39 55.5h90q-9 -69 -67.5 -109.5t-145.5 -40.5zM427 313v37q0 65 -32.5 100t-94.5 35q-61 0 -94 -35
t-33 -100v-29h261zM267 645l-115 140h100l110 -140h-95z" />
    <glyph glyph-name="eacute" unicode="&#xe9;" 
d="M300 -10q-65 0 -113.5 26t-75 73.5t-26.5 110.5v150q0 64 26.5 111t75 73t113.5 26t113.5 -26t75 -73t26.5 -111v-97h-342v-53q0 -65 33 -99.5t94 -34.5q52 0 84 18.5t39 55.5h90q-9 -69 -67.5 -109.5t-145.5 -40.5zM427 313v37q0 65 -32.5 100t-94.5 35q-61 0 -94 -35
t-33 -100v-29h261zM242 645l106 140h97l-111 -140h-92z" />
    <glyph glyph-name="ecircumflex" unicode="&#xea;" 
d="M300 -10q-65 0 -113.5 26t-75 73.5t-26.5 110.5v150q0 64 26.5 111t75 73t113.5 26t113.5 -26t75 -73t26.5 -111v-97h-342v-53q0 -65 33 -99.5t94 -34.5q52 0 84 18.5t39 55.5h90q-9 -69 -67.5 -109.5t-145.5 -40.5zM427 313v37q0 65 -32.5 100t-94.5 35q-61 0 -94 -35
t-33 -100v-29h261zM119 645l139 140h83l140 -140h-99l-82 78l-80 -78h-101z" />
    <glyph glyph-name="edieresis" unicode="&#xeb;" 
d="M300 -10q-65 0 -113.5 26t-75 73.5t-26.5 110.5v150q0 64 26.5 111t75 73t113.5 26t113.5 -26t75 -73t26.5 -111v-97h-342v-53q0 -65 33 -99.5t94 -34.5q52 0 84 18.5t39 55.5h90q-9 -69 -67.5 -109.5t-145.5 -40.5zM427 313v37q0 65 -32.5 100t-94.5 35q-61 0 -94 -35
t-33 -100v-29h261zM411 649q-29 0 -46.5 17t-17.5 46q0 30 17.5 47.5t46.5 17.5t46.5 -17.5t17.5 -47.5q0 -29 -17.5 -46t-46.5 -17zM189 649q-29 0 -46.5 17t-17.5 46q0 30 17.5 47.5t46.5 17.5t46.5 -17.5t17.5 -47.5q0 -29 -17.5 -46t-46.5 -17z" />
    <glyph glyph-name="igrave" unicode="&#xec;" 
d="M85 0v82h195v386h-170v82h260v-468h185v-82h-470zM282 645l-115 140h100l110 -140h-95z" />
    <glyph glyph-name="iacute" unicode="&#xed;" 
d="M85 0v82h195v386h-170v82h260v-468h185v-82h-470zM257 645l106 140h97l-111 -140h-92z" />
    <glyph glyph-name="icircumflex" unicode="&#xee;" 
d="M85 0v82h195v386h-170v82h260v-468h185v-82h-470zM134 645l139 140h83l140 -140h-99l-82 78l-80 -78h-101z" />
    <glyph glyph-name="idieresis" unicode="&#xef;" 
d="M85 0v82h195v386h-170v82h260v-468h185v-82h-470zM426 649q-29 0 -46.5 17t-17.5 46q0 30 17.5 47.5t46.5 17.5t46.5 -17.5t17.5 -47.5q0 -29 -17.5 -46t-46.5 -17zM204 649q-29 0 -46.5 17t-17.5 46q0 30 17.5 47.5t46.5 17.5t46.5 -17.5t17.5 -47.5q0 -29 -17.5 -46
t-46.5 -17z" />
    <glyph glyph-name="eth" unicode="&#xf0;" 
d="M299 -10q-68 0 -120 28t-80.5 79t-28.5 118t26.5 116.5t74 77t110.5 27.5q29 0 52 -9t39 -22t23 -25h14q-4 10 -20 36.5t-44 63.5l-65 91l-163 -76v80l120 56l-72 99h104l44 -64l148 69v-80l-106 -49l78 -113q44 -64 70.5 -135t26.5 -135q0 -70 -29 -122.5t-80.5 -81.5
t-121.5 -29zM299 70q64 0 102.5 40t38.5 105q0 44 -17.5 76.5t-49 50.5t-74.5 18q-62 0 -100.5 -40t-38.5 -105t38.5 -105t100.5 -40z" />
    <glyph glyph-name="ntilde" unicode="&#xf1;" 
d="M92 0v550h90v-105h19l-19 -21q0 65 39 100.5t108 35.5q83 0 132 -51t49 -139v-370h-90v360q0 59 -31.5 90.5t-85.5 31.5q-56 0 -88.5 -34t-32.5 -98v-350h-90zM375 650q-30 0 -49 10.5t-32 24.5t-25 24.5t-29 10.5q-13 0 -21.5 -8.5t-8.5 -26.5v-30h-65v30q0 45 25 70
t65 25q30 0 49 -10.5t32 -24.5t25 -24.5t29 -10.5q14 0 22 8.5t8 26.5v30h65v-30q0 -45 -24.5 -70t-65.5 -25z" />
    <glyph glyph-name="ograve" unicode="&#xf2;" 
d="M300 -8q-66 0 -114 25t-74.5 72.5t-26.5 112.5v146q0 66 26.5 113t74.5 72t114 25t114 -25t74.5 -72t26.5 -112v-147q0 -65 -26.5 -112.5t-74.5 -72.5t-114 -25zM300 72q59 0 92 33t33 97v146q0 64 -33 97t-92 33q-58 0 -91.5 -33t-33.5 -97v-146q0 -64 33.5 -97
t91.5 -33zM267 645l-115 140h100l110 -140h-95z" />
    <glyph glyph-name="oacute" unicode="&#xf3;" 
d="M300 -8q-66 0 -114 25t-74.5 72.5t-26.5 112.5v146q0 66 26.5 113t74.5 72t114 25t114 -25t74.5 -72t26.5 -112v-147q0 -65 -26.5 -112.5t-74.5 -72.5t-114 -25zM300 72q59 0 92 33t33 97v146q0 64 -33 97t-92 33q-58 0 -91.5 -33t-33.5 -97v-146q0 -64 33.5 -97
t91.5 -33zM242 645l106 140h97l-111 -140h-92z" />
    <glyph glyph-name="ocircumflex" unicode="&#xf4;" 
d="M300 -8q-66 0 -114 25t-74.5 72.5t-26.5 112.5v146q0 66 26.5 113t74.5 72t114 25t114 -25t74.5 -72t26.5 -112v-147q0 -65 -26.5 -112.5t-74.5 -72.5t-114 -25zM300 72q59 0 92 33t33 97v146q0 64 -33 97t-92 33q-58 0 -91.5 -33t-33.5 -97v-146q0 -64 33.5 -97
t91.5 -33zM119 645l139 140h83l140 -140h-99l-82 78l-80 -78h-101z" />
    <glyph glyph-name="otilde" unicode="&#xf5;" 
d="M300 -8q-66 0 -114 25t-74.5 72.5t-26.5 112.5v146q0 66 26.5 113t74.5 72t114 25t114 -25t74.5 -72t26.5 -112v-147q0 -65 -26.5 -112.5t-74.5 -72.5t-114 -25zM300 72q59 0 92 33t33 97v146q0 64 -33 97t-92 33q-58 0 -91.5 -33t-33.5 -97v-146q0 -64 33.5 -97
t91.5 -33zM370 650q-30 0 -49 10.5t-32 24.5t-25 24.5t-29 10.5q-13 0 -21.5 -8.5t-8.5 -26.5v-30h-65v30q0 45 25 70t65 25q30 0 49 -10.5t32 -24.5t25 -24.5t29 -10.5q14 0 22 8.5t8 26.5v30h65v-30q0 -45 -24.5 -70t-65.5 -25z" />
    <glyph glyph-name="odieresis" unicode="&#xf6;" 
d="M300 -8q-66 0 -114 25t-74.5 72.5t-26.5 112.5v146q0 66 26.5 113t74.5 72t114 25t114 -25t74.5 -72t26.5 -112v-147q0 -65 -26.5 -112.5t-74.5 -72.5t-114 -25zM300 72q59 0 92 33t33 97v146q0 64 -33 97t-92 33q-58 0 -91.5 -33t-33.5 -97v-146q0 -64 33.5 -97
t91.5 -33zM411 649q-29 0 -46.5 17t-17.5 46q0 30 17.5 47.5t46.5 17.5t46.5 -17.5t17.5 -47.5q0 -29 -17.5 -46t-46.5 -17zM189 649q-29 0 -46.5 17t-17.5 46q0 30 17.5 47.5t46.5 17.5t46.5 -17.5t17.5 -47.5q0 -29 -17.5 -46t-46.5 -17z" />
    <glyph glyph-name="divide" unicode="&#xf7;" 
d="M100 295v75h400v-75h-400zM290 85q-29 0 -47 15.5t-18 43.5q0 27 18 44t47 17h20q29 0 47 -17t18 -44t-18 -43t-47 -16h-20zM290 460q-29 0 -47 15.5t-18 43.5q0 27 18 44t47 17h20q29 0 47 -17t18 -44t-18 -43t-47 -16h-20z" />
    <glyph glyph-name="oslash" unicode="&#xf8;" 
d="M35 -30l439 620h91l-440 -620h-90zM300 -10q-66 0 -113.5 25t-73 72.5t-25.5 112.5v150q0 66 25.5 113t73 72t113.5 25t113.5 -25t73 -72t25.5 -112v-151q0 -65 -25.5 -112.5t-73 -72.5t-113.5 -25zM300 70q60 0 93.5 34.5t33.5 95.5v150q0 62 -33.5 96t-93.5 34
t-93.5 -34t-33.5 -96v-150q0 -61 33.5 -95.5t93.5 -34.5z" />
    <glyph glyph-name="ugrave" unicode="&#xf9;" 
d="M299 -10q-95 0 -152 56.5t-57 153.5v350h90v-350q0 -62 32 -96.5t87 -34.5q56 0 88.5 34.5t32.5 96.5v350h90v-350q0 -97 -58 -153.5t-153 -56.5zM267 645l-115 140h100l110 -140h-95z" />
    <glyph glyph-name="uacute" unicode="&#xfa;" 
d="M299 -10q-95 0 -152 56.5t-57 153.5v350h90v-350q0 -62 32 -96.5t87 -34.5q56 0 88.5 34.5t32.5 96.5v350h90v-350q0 -97 -58 -153.5t-153 -56.5zM242 645l106 140h97l-111 -140h-92z" />
    <glyph glyph-name="ucircumflex" unicode="&#xfb;" 
d="M299 -10q-95 0 -152 56.5t-57 153.5v350h90v-350q0 -62 32 -96.5t87 -34.5q56 0 88.5 34.5t32.5 96.5v350h90v-350q0 -97 -58 -153.5t-153 -56.5zM119 645l139 140h83l140 -140h-99l-82 78l-80 -78h-101z" />
    <glyph glyph-name="udieresis" unicode="&#xfc;" 
d="M299 -10q-95 0 -152 56.5t-57 153.5v350h90v-350q0 -62 32 -96.5t87 -34.5q56 0 88.5 34.5t32.5 96.5v350h90v-350q0 -97 -58 -153.5t-153 -56.5zM411 649q-29 0 -46.5 17t-17.5 46q0 30 17.5 47.5t46.5 17.5t46.5 -17.5t17.5 -47.5q0 -29 -17.5 -46t-46.5 -17zM189 649
q-29 0 -46.5 17t-17.5 46q0 30 17.5 47.5t46.5 17.5t46.5 -17.5t17.5 -47.5q0 -29 -17.5 -46t-46.5 -17z" />
    <glyph glyph-name="yacute" unicode="&#xfd;" 
d="M178 -180l81 214l-204 516h100l128 -340q7 -17 13 -40.5t10 -39.5q4 16 10 39.5t12 40.5l120 340h97l-271 -730h-96zM242 645l106 140h97l-111 -140h-92z" />
    <glyph glyph-name="thorn" unicode="&#xfe;" 
d="M87 -170v229h90v-229h-90zM327 -10q-68 0 -109 36.5t-41 99.5l18 -21h-18v-105h-90v730h90v-160l-2 -125h20l-18 -21q0 62 41.5 99t108.5 37q83 0 133 -55t50 -150v-161q0 -94 -50 -149t-133 -55zM297 68q57 0 90 34t33 98v150q0 64 -33 98t-90 34q-55 0 -87.5 -35
t-32.5 -97v-150q0 -62 32.5 -97t87.5 -35z" />
    <glyph glyph-name="ydieresis" unicode="&#xff;" 
d="M178 -180l81 214l-204 516h100l128 -340q7 -17 13 -40.5t10 -39.5q4 16 10 39.5t12 40.5l120 340h97l-271 -730h-96zM411 649q-29 0 -46.5 17t-17.5 46q0 30 17.5 47.5t46.5 17.5t46.5 -17.5t17.5 -47.5q0 -29 -17.5 -46t-46.5 -17zM189 649q-29 0 -46.5 17t-17.5 46
q0 30 17.5 47.5t46.5 17.5t46.5 -17.5t17.5 -47.5q0 -29 -17.5 -46t-46.5 -17z" />
    <glyph glyph-name="Amacron" unicode="&#x100;" 
d="M50 0l190 730h121l189 -730h-91l-48 194h-221l-48 -194h-92zM208 270h184l-56 225q-16 64 -25 107t-11 56q-2 -13 -11 -56t-25 -106zM140 840v75h320v-75h-320z" />
    <glyph glyph-name="amacron" unicode="&#x101;" 
d="M252 -10q-87 0 -137 44.5t-50 120.5q0 77 50 121t135 44h170v55q0 51 -30.5 78.5t-86.5 27.5q-49 0 -82 -20.5t-38 -55.5h-90q9 71 67 113t145 42q95 0 150 -49t55 -133v-378h-88v105h-15l15 15q0 -60 -46.5 -95t-123.5 -35zM274 61q64 0 105 32t41 82v78h-168
q-45 0 -71 -25t-26 -68q0 -46 31.5 -72.5t87.5 -26.5zM145 670v75h320v-75h-320z" />
    <glyph glyph-name="Abreve" unicode="&#x102;" 
d="M50 0l190 730h121l189 -730h-91l-48 194h-221l-48 -194h-92zM208 270h184l-56 225q-16 64 -25 107t-11 56q-2 -13 -11 -56t-25 -106zM300 805q-72 0 -116 40t-44 105h71q0 -39 24 -63t64 -24q41 0 65.5 24t24.5 63h71q0 -65 -44 -105t-116 -40z" />
    <glyph glyph-name="abreve" unicode="&#x103;" 
d="M252 -10q-87 0 -137 44.5t-50 120.5q0 77 50 121t135 44h170v55q0 51 -30.5 78.5t-86.5 27.5q-49 0 -82 -20.5t-38 -55.5h-90q9 71 67 113t145 42q95 0 150 -49t55 -133v-378h-88v105h-15l15 15q0 -60 -46.5 -95t-123.5 -35zM274 61q64 0 105 32t41 82v78h-168
q-45 0 -71 -25t-26 -68q0 -46 31.5 -72.5t87.5 -26.5zM305 640q-72 0 -116 40t-44 105h71q0 -39 24 -63t64 -24q41 0 65.5 24t24.5 63h71q0 -65 -44 -105t-116 -40z" />
    <glyph glyph-name="Aogonek" unicode="&#x104;" 
d="M507 -203q-55 0 -88.5 26.5t-33.5 66.5q0 29 19 58t66 62h75l-11 -9q-34 -28 -49 -50.5t-15 -43.5q0 -22 15 -36t40 -14h60v-60h-78zM50 0l190 730h121l189 -730h-91l-48 194h-221l-48 -194h-92zM208 270h184l-56 225q-16 64 -25 107t-11 56q-2 -13 -11 -56t-25 -106z
" />
    <glyph glyph-name="aogonek" unicode="&#x105;" 
d="M483 -203q-55 0 -88.5 26.5t-33.5 66.5q0 29 19 58t66 62l64 -10q-34 -28 -49 -50t-15 -43q0 -22 15 -36t40 -14h60v-60h-78zM252 -10q-87 0 -137 44.5t-50 120.5q0 77 50 121t135 44h170v55q0 51 -30.5 78.5t-86.5 27.5q-49 0 -82 -20.5t-38 -55.5h-90q9 71 67 113
t145 42q95 0 150 -49t55 -133v-378h-88v105h-15l15 15q0 -60 -46.5 -95t-123.5 -35zM274 61q64 0 105 32t41 82v78h-168q-45 0 -71 -25t-26 -68q0 -46 31.5 -72.5t87.5 -26.5z" />
    <glyph glyph-name="Cacute" unicode="&#x106;" 
d="M304 -10q-66 0 -114.5 25t-75 72.5t-26.5 112.5v330q0 66 26.5 113t75 72t114.5 25t114 -25.5t74 -72.5t26 -112h-90q0 62 -32.5 95.5t-91.5 33.5t-92.5 -33t-33.5 -95v-331q0 -62 33.5 -95.5t92.5 -33.5t91.5 33.5t32.5 95.5h90q0 -64 -26 -111.5t-74 -73t-114 -25.5z
M247 810l106 140h97l-111 -140h-92z" />
    <glyph glyph-name="cacute" unicode="&#x107;" 
d="M304 -10q-66 0 -115.5 25t-76.5 72.5t-27 112.5v150q0 66 27 113t76.5 72t115.5 25q95 0 153 -51t61 -139h-90q-3 53 -35.5 81.5t-88.5 28.5q-59 0 -94 -33.5t-35 -95.5v-151q0 -62 35 -96t94 -34q56 0 88.5 29t35.5 81h90q-3 -88 -61 -139t-153 -51zM246 645l106 140h97
l-111 -140h-92z" />
    <glyph glyph-name="Ccircumflex" unicode="&#x108;" 
d="M304 -10q-66 0 -114.5 25t-75 72.5t-26.5 112.5v330q0 66 26.5 113t75 72t114.5 25t114 -25.5t74 -72.5t26 -112h-90q0 62 -32.5 95.5t-91.5 33.5t-92.5 -33t-33.5 -95v-331q0 -62 33.5 -95.5t92.5 -33.5t91.5 33.5t32.5 95.5h90q0 -64 -26 -111.5t-74 -73t-114 -25.5z
M124 810l139 140h83l140 -140h-99l-82 78l-80 -78h-101z" />
    <glyph glyph-name="ccircumflex" unicode="&#x109;" 
d="M304 -10q-66 0 -115.5 25t-76.5 72.5t-27 112.5v150q0 66 27 113t76.5 72t115.5 25q95 0 153 -51t61 -139h-90q-3 53 -35.5 81.5t-88.5 28.5q-59 0 -94 -33.5t-35 -95.5v-151q0 -62 35 -96t94 -34q56 0 88.5 29t35.5 81h90q-3 -88 -61 -139t-153 -51zM119 645l139 140h83
l140 -140h-99l-82 78l-80 -78h-101z" />
    <glyph glyph-name="Cdotaccent" unicode="&#x10a;" 
d="M304 -10q-66 0 -114.5 25t-75 72.5t-26.5 112.5v330q0 66 26.5 113t75 72t114.5 25t114 -25.5t74 -72.5t26 -112h-90q0 62 -32.5 95.5t-91.5 33.5t-92.5 -33t-33.5 -95v-331q0 -62 33.5 -95.5t92.5 -33.5t91.5 33.5t32.5 95.5h90q0 -64 -26 -111.5t-74 -73t-114 -25.5z
M305 816q-33 0 -52 17.5t-19 46.5t19 46.5t52 17.5t52 -17.5t19 -46.5t-19 -46.5t-52 -17.5z" />
    <glyph glyph-name="cdotaccent" unicode="&#x10b;" 
d="M304 -10q-66 0 -115.5 25t-76.5 72.5t-27 112.5v150q0 66 27 113t76.5 72t115.5 25q95 0 153 -51t61 -139h-90q-3 53 -35.5 81.5t-88.5 28.5q-59 0 -94 -33.5t-35 -95.5v-151q0 -62 35 -96t94 -34q56 0 88.5 29t35.5 81h90q-3 -88 -61 -139t-153 -51zM300 649
q-33 0 -52 17t-19 46q0 30 19 47.5t52 17.5t52 -17.5t19 -47.5q0 -29 -19 -46t-52 -17z" />
    <glyph glyph-name="Ccaron" unicode="&#x10c;" 
d="M304 -10q-66 0 -114.5 25t-75 72.5t-26.5 112.5v330q0 66 26.5 113t75 72t114.5 25t114 -25.5t74 -72.5t26 -112h-90q0 62 -32.5 95.5t-91.5 33.5t-92.5 -33t-33.5 -95v-331q0 -62 33.5 -95.5t92.5 -33.5t91.5 33.5t32.5 95.5h90q0 -64 -26 -111.5t-74 -73t-114 -25.5z
M264 810l-140 140h99l82 -78l80 78h101l-139 -140h-83z" />
    <glyph glyph-name="ccaron" unicode="&#x10d;" 
d="M304 -10q-66 0 -115.5 25t-76.5 72.5t-27 112.5v150q0 66 27 113t76.5 72t115.5 25q95 0 153 -51t61 -139h-90q-3 53 -35.5 81.5t-88.5 28.5q-59 0 -94 -33.5t-35 -95.5v-151q0 -62 35 -96t94 -34q56 0 88.5 29t35.5 81h90q-3 -88 -61 -139t-153 -51zM263 645l-140 140
h99l82 -78l80 78h101l-139 -140h-83z" />
    <glyph glyph-name="Dcaron" unicode="&#x10e;" 
d="M92 0v730h189q71 0 122.5 -27t80 -76t28.5 -116v-291q0 -67 -28.5 -116.5t-80 -76.5t-122.5 -27h-189zM182 80h99q66 0 103.5 37t37.5 103v291q0 65 -37.5 102t-103.5 37h-99v-570zM259 810l-140 140h99l82 -78l80 78h101l-139 -140h-83z" />
    <glyph glyph-name="dcaron" unicode="&#x10f;" 
d="M510 550v180h90l-10 -180h-80zM228 -10q-76 0 -120.5 54t-44.5 145v171q0 92 44.5 146t120.5 54q62 0 98.5 -37t36.5 -99l-18 21h20l-2 125v160h90v-730h-90v105h-18l18 21q0 -62 -36.5 -99t-98.5 -37zM258 68q50 0 77.5 33.5t27.5 93.5v160q0 60 -27.5 93.5t-77.5 33.5
q-49 0 -77 -33.5t-28 -93.5v-160q0 -60 28 -93.5t77 -33.5z" />
    <glyph glyph-name="Dcroat" unicode="&#x110;" 
d="M10 335v75h280v-75h-280zM92 0v730h189q71 0 122.5 -27t80 -76t28.5 -116v-291q0 -67 -28.5 -116.5t-80 -76.5t-122.5 -27h-189zM182 80h99q66 0 103.5 37t37.5 103v291q0 65 -37.5 102t-103.5 37h-99v-570z" />
    <glyph glyph-name="dcroat" unicode="&#x111;" 
d="M268 -10q-82 0 -130 55t-48 149v101q0 95 47.5 150t130.5 55q68 0 108 -37t40 -99l-18 21h20l-2 125v220h90v-730h-90v105h-18l18 21q0 -63 -40 -99.5t-108 -36.5zM298 68q56 0 87 35t31 97v90q0 62 -31 97t-87 35q-57 0 -87.5 -34t-30.5 -98v-90q0 -64 30.5 -98
t87.5 -34zM250 570v75h350v-75h-350z" />
    <glyph glyph-name="Emacron" unicode="&#x112;" 
d="M100 0v730h420v-82h-331v-226h296v-81h-296v-259h331v-82h-420zM160 840v75h320v-75h-320z" />
    <glyph glyph-name="emacron" unicode="&#x113;" 
d="M300 -10q-65 0 -113.5 26t-75 73.5t-26.5 110.5v150q0 64 26.5 111t75 73t113.5 26t113.5 -26t75 -73t26.5 -111v-97h-342v-53q0 -65 33 -99.5t94 -34.5q52 0 84 18.5t39 55.5h90q-9 -69 -67.5 -109.5t-145.5 -40.5zM427 313v37q0 65 -32.5 100t-94.5 35q-61 0 -94 -35
t-33 -100v-29h261zM140 670v75h320v-75h-320z" />
    <glyph glyph-name="Ebreve" unicode="&#x114;" 
d="M100 0v730h420v-82h-331v-226h296v-81h-296v-259h331v-82h-420zM320 805q-72 0 -116 40t-44 105h71q0 -39 24 -63t64 -24q41 0 65.5 24t24.5 63h71q0 -65 -44 -105t-116 -40z" />
    <glyph glyph-name="ebreve" unicode="&#x115;" 
d="M300 -10q-65 0 -113.5 26t-75 73.5t-26.5 110.5v150q0 64 26.5 111t75 73t113.5 26t113.5 -26t75 -73t26.5 -111v-97h-342v-53q0 -65 33 -99.5t94 -34.5q52 0 84 18.5t39 55.5h90q-9 -69 -67.5 -109.5t-145.5 -40.5zM427 313v37q0 65 -32.5 100t-94.5 35q-61 0 -94 -35
t-33 -100v-29h261zM300 640q-72 0 -116 40t-44 105h71q0 -39 24 -63t64 -24q41 0 65.5 24t24.5 63h71q0 -65 -44 -105t-116 -40z" />
    <glyph glyph-name="Edotaccent" unicode="&#x116;" 
d="M100 0v730h420v-82h-331v-226h296v-81h-296v-259h331v-82h-420zM320 816q-33 0 -52 17.5t-19 46.5t19 46.5t52 17.5t52 -17.5t19 -46.5t-19 -46.5t-52 -17.5z" />
    <glyph glyph-name="edotaccent" unicode="&#x117;" 
d="M300 -10q-65 0 -113.5 26t-75 73.5t-26.5 110.5v150q0 64 26.5 111t75 73t113.5 26t113.5 -26t75 -73t26.5 -111v-97h-342v-53q0 -65 33 -99.5t94 -34.5q52 0 84 18.5t39 55.5h90q-9 -69 -67.5 -109.5t-145.5 -40.5zM427 313v37q0 65 -32.5 100t-94.5 35q-61 0 -94 -35
t-33 -100v-29h261zM300 649q-33 0 -52 17t-19 46q0 30 19 47.5t52 17.5t52 -17.5t19 -47.5q0 -29 -19 -46t-52 -17z" />
    <glyph glyph-name="Eogonek" unicode="&#x118;" 
d="M447 -203q-55 0 -88.5 26.5t-33.5 66.5q0 29 19 58t66 62h75l-11 -9q-34 -28 -49 -50.5t-15 -43.5q0 -22 15 -36t40 -14h60v-60h-78zM100 0v730h420v-82h-331v-226h296v-81h-296v-259h331v-82h-420z" />
    <glyph glyph-name="eogonek" unicode="&#x119;" 
d="M373 -203q-55 0 -88.5 26.5t-33.5 66.5q0 23 15 48.5t44 51.5h-5h-5q-65 0 -112.5 26t-73.5 73.5t-26 110.5v150q0 64 26 111t73.5 73t112.5 26t112.5 -26t73.5 -73t26 -111v-97h-336v-53q0 -65 31.5 -99.5t92.5 -34.5q52 0 82.5 18.5t37.5 55.5h90q-5 -43 -30 -75
t-64 -51l-16 -13q-34 -28 -49 -50.5t-15 -43.5q0 -22 15 -36t40 -14h60v-60h-78zM424 281v69q0 65 -31 100t-93 35q-61 0 -92.5 -35t-31.5 -100v-29h288z" />
    <glyph glyph-name="Ecaron" unicode="&#x11a;" 
d="M100 0v730h420v-82h-331v-226h296v-81h-296v-259h331v-82h-420zM279 810l-140 140h99l82 -78l80 78h101l-139 -140h-83z" />
    <glyph glyph-name="ecaron" unicode="&#x11b;" 
d="M300 -10q-65 0 -113.5 26t-75 73.5t-26.5 110.5v150q0 64 26.5 111t75 73t113.5 26t113.5 -26t75 -73t26.5 -111v-97h-342v-53q0 -65 33 -99.5t94 -34.5q52 0 84 18.5t39 55.5h90q-9 -69 -67.5 -109.5t-145.5 -40.5zM427 313v37q0 65 -32.5 100t-94.5 35q-61 0 -94 -35
t-33 -100v-29h261zM259 645l-140 140h99l82 -78l80 78h101l-139 -140h-83z" />
    <glyph glyph-name="Gcircumflex" unicode="&#x11c;" 
d="M304 -10q-66 0 -114.5 25t-75 72.5t-26.5 112.5v330q0 66 26.5 113t75 72t114.5 25t114 -25.5t74 -72.5t26 -112h-90q0 62 -32.5 95.5t-91.5 33.5t-92.5 -33t-33.5 -95v-331q0 -62 33.5 -96t92.5 -34t91.5 34t32.5 96v90h-148v82h238v-172q0 -64 -26 -111.5t-74 -73
t-114 -25.5zM119 810l139 140h83l140 -140h-99l-82 78l-80 -78h-101z" />
    <glyph glyph-name="gcircumflex" unicode="&#x11d;" 
d="M161 -180v82h175q42 0 61.5 19t19.5 59v70l2 100h-18l17 15q0 -60 -40 -95t-107 -35q-85 0 -134 55.5t-49 149.5v116q0 94 49 149t134 55q67 0 107 -35t40 -95l-17 15h17v105h89v-570q0 -74 -45.5 -117t-126.5 -43h-174zM298 113q56 0 88 35t32 97v105q0 62 -32 97
t-88 35q-57 0 -88.5 -34t-31.5 -98v-105q0 -64 31.5 -98t88.5 -34zM116 645l139 140h83l140 -140h-99l-82 78l-80 -78h-101z" />
    <glyph glyph-name="Gbreve" unicode="&#x11e;" 
d="M304 -10q-66 0 -114.5 25t-75 72.5t-26.5 112.5v330q0 66 26.5 113t75 72t114.5 25t114 -25.5t74 -72.5t26 -112h-90q0 62 -32.5 95.5t-91.5 33.5t-92.5 -33t-33.5 -95v-331q0 -62 33.5 -96t92.5 -34t91.5 34t32.5 96v90h-148v82h238v-172q0 -64 -26 -111.5t-74 -73
t-114 -25.5zM300 805q-72 0 -116 40t-44 105h71q0 -39 24 -63t64 -24q41 0 65.5 24t24.5 63h71q0 -65 -44 -105t-116 -40z" />
    <glyph glyph-name="gbreve" unicode="&#x11f;" 
d="M161 -180v82h175q42 0 61.5 19t19.5 59v70l2 100h-18l17 15q0 -60 -40 -95t-107 -35q-85 0 -134 55.5t-49 149.5v116q0 94 49 149t134 55q67 0 107 -35t40 -95l-17 15h17v105h89v-570q0 -74 -45.5 -117t-126.5 -43h-174zM298 113q56 0 88 35t32 97v105q0 62 -32 97
t-88 35q-57 0 -88.5 -34t-31.5 -98v-105q0 -64 31.5 -98t88.5 -34zM297 640q-72 0 -116 40t-44 105h71q0 -39 24 -63t64 -24q41 0 65.5 24t24.5 63h71q0 -65 -44 -105t-116 -40z" />
    <glyph glyph-name="Gdotaccent" unicode="&#x120;" 
d="M304 -10q-66 0 -114.5 25t-75 72.5t-26.5 112.5v330q0 66 26.5 113t75 72t114.5 25t114 -25.5t74 -72.5t26 -112h-90q0 62 -32.5 95.5t-91.5 33.5t-92.5 -33t-33.5 -95v-331q0 -62 33.5 -96t92.5 -34t91.5 34t32.5 96v90h-148v82h238v-172q0 -64 -26 -111.5t-74 -73
t-114 -25.5zM300 816q-33 0 -52 17.5t-19 46.5t19 46.5t52 17.5t52 -17.5t19 -46.5t-19 -46.5t-52 -17.5z" />
    <glyph glyph-name="gdotaccent" unicode="&#x121;" 
d="M161 -180v82h175q42 0 61.5 19t19.5 59v70l2 100h-18l17 15q0 -60 -40 -95t-107 -35q-85 0 -134 55.5t-49 149.5v116q0 94 49 149t134 55q67 0 107 -35t40 -95l-17 15h17v105h89v-570q0 -74 -45.5 -117t-126.5 -43h-174zM298 113q56 0 88 35t32 97v105q0 62 -32 97
t-88 35q-57 0 -88.5 -34t-31.5 -98v-105q0 -64 31.5 -98t88.5 -34zM297 649q-33 0 -52 17t-19 46q0 30 19 47.5t52 17.5t52 -17.5t19 -47.5q0 -29 -19 -46t-52 -17z" />
    <glyph glyph-name="uni0122" unicode="&#x122;" 
d="M304 -10q-66 0 -114.5 25t-75 72.5t-26.5 112.5v330q0 66 26.5 113t75 72t114.5 25t114 -25.5t74 -72.5t26 -112h-90q0 62 -32.5 95.5t-91.5 33.5t-92.5 -33t-33.5 -95v-331q0 -62 33.5 -96t92.5 -34t91.5 34t32.5 96v90h-148v82h238v-172q0 -64 -26 -111.5t-74 -73
t-114 -25.5zM194 -240l95 145h105l-105 -145h-95z" />
    <glyph glyph-name="uni0123" unicode="&#x123;" 
d="M161 -180v82h175q42 0 61.5 19t19.5 59v70l2 100h-18l17 15q0 -60 -40 -95t-107 -35q-85 0 -134 55.5t-49 149.5v116q0 94 49 149t134 55q67 0 107 -35t40 -95l-17 15h17v105h89v-570q0 -74 -45.5 -117t-126.5 -43h-174zM298 113q56 0 88 35t32 97v105q0 62 -32 97
t-88 35q-57 0 -88.5 -34t-31.5 -98v-105q0 -64 31.5 -98t88.5 -34zM412 880l-80 -235h-125l130 235h75z" />
    <glyph glyph-name="Hcircumflex" unicode="&#x124;" 
d="M93 0v730h90v-312h234v312h90v-730h-90v336h-234v-336h-90zM119 810l139 140h83l140 -140h-99l-82 78l-80 -78h-101z" />
    <glyph glyph-name="hcircumflex" unicode="&#x125;" 
d="M92 0v730h90v-180v-105h19l-19 -21q0 65 39 100.5t108 35.5q83 0 132 -51t49 -139v-370h-90v360q0 59 -31.5 91.5t-85.5 32.5q-56 0 -88.5 -35t-32.5 -99v-350h-90zM-31 805l139 140h83l140 -140h-99l-82 78l-80 -78h-101z" />
    <glyph glyph-name="Hbar" unicode="&#x126;" 
d="M10 525v75h580v-75h-580zM93 0v730h90v-312h234v312h90v-730h-90v336h-234v-336h-90z" />
    <glyph glyph-name="hbar" unicode="&#x127;" 
d="M0 570v75h92v85h90v-85h168v-75h-168v-80v-105h1q7 55 45 85t101 30q83 0 132 -51t49 -139v-310h-90v300q0 59 -31.5 91.5t-85.5 32.5q-56 0 -88.5 -35t-32.5 -99v-290h-90v570h-92z" />
    <glyph glyph-name="Itilde" unicode="&#x128;" 
d="M105 0v82h149v566h-149v82h390v-82h-149v-566h149v-82h-390zM370 815q-30 0 -49 10.5t-32 24.5t-25 24.5t-29 10.5q-13 0 -21.5 -8.5t-8.5 -26.5v-30h-65v30q0 45 25 70t65 25q30 0 49 -10.5t32 -24.5t25 -24.5t29 -10.5q14 0 22 8.5t8 26.5v30h65v-30q0 -45 -24.5 -70
t-65.5 -25z" />
    <glyph glyph-name="itilde" unicode="&#x129;" 
d="M85 0v82h195v386h-170v82h260v-468h185v-82h-470zM385 650q-30 0 -49 10.5t-32 24.5t-25 24.5t-29 10.5q-13 0 -21.5 -8.5t-8.5 -26.5v-30h-65v30q0 45 25 70t65 25q30 0 49 -10.5t32 -24.5t25 -24.5t29 -10.5q14 0 22 8.5t8 26.5v30h65v-30q0 -45 -24.5 -70t-65.5 -25z
" />
    <glyph glyph-name="Imacron" unicode="&#x12a;" 
d="M105 0v82h149v566h-149v82h390v-82h-149v-566h149v-82h-390zM140 840v75h320v-75h-320z" />
    <glyph glyph-name="imacron" unicode="&#x12b;" 
d="M85 0v82h195v386h-170v82h260v-468h185v-82h-470zM155 670v75h320v-75h-320z" />
    <glyph glyph-name="Ibreve" unicode="&#x12c;" 
d="M105 0v82h149v566h-149v82h390v-82h-149v-566h149v-82h-390zM300 805q-72 0 -116 40t-44 105h71q0 -39 24 -63t64 -24q41 0 65.5 24t24.5 63h71q0 -65 -44 -105t-116 -40z" />
    <glyph glyph-name="ibreve" unicode="&#x12d;" 
d="M85 0v82h195v386h-170v82h260v-468h185v-82h-470zM315 640q-72 0 -116 40t-44 105h71q0 -39 24 -63t64 -24q41 0 65.5 24t24.5 63h71q0 -65 -44 -105t-116 -40z" />
    <glyph glyph-name="Iogonek" unicode="&#x12e;" 
d="M307 -203q-55 0 -88.5 26.5t-33.5 66.5q0 29 19 58t66 62h75l-11 -9q-34 -28 -49 -50.5t-15 -43.5q0 -22 15 -36t40 -14h60v-60h-78zM105 0v82h149v566h-149v82h390v-82h-149v-566h149v-82h-390z" />
    <glyph glyph-name="iogonek" unicode="&#x12f;" 
d="M322 -203q-55 0 -88.5 26.5t-33.5 66.5q0 29 19 58t66 62h75l-11 -9q-34 -28 -49 -50.5t-15 -43.5q0 -22 15 -36t40 -14h60v-60h-78zM85 0v82h195v386h-170v82h260v-468h185v-82h-470zM315 649q-33 0 -52 17t-19 46q0 30 19 47.5t52 17.5t52 -17.5t19 -47.5
q0 -29 -19 -46t-52 -17z" />
    <glyph glyph-name="Idotaccent" unicode="&#x130;" 
d="M105 0v82h149v566h-149v82h390v-82h-149v-566h149v-82h-390zM300 816q-33 0 -52 17.5t-19 46.5t19 46.5t52 17.5t52 -17.5t19 -46.5t-19 -46.5t-52 -17.5z" />
    <glyph glyph-name="dotlessi" unicode="&#x131;" 
d="M85 0v82h195v386h-170v82h260v-468h185v-82h-470z" />
    <glyph glyph-name="Jcircumflex" unicode="&#x134;" 
d="M270 -10q-105 0 -165 59t-60 161h90q0 -67 35.5 -103.5t99.5 -36.5t99.5 36.5t35.5 103.5v438h-175v82h265v-520q0 -102 -60.5 -161t-164.5 -59zM179 810l139 140h83l140 -140h-99l-82 78l-80 -78h-101z" />
    <glyph glyph-name="jcircumflex" unicode="&#x135;" 
d="M85 -180v83h129q62 0 96.5 33.5t34.5 94.5v437h-230v82h320v-519q0 -97 -60 -154t-161 -57h-129zM144 645l139 140h83l140 -140h-99l-82 78l-80 -78h-101z" />
    <glyph glyph-name="uni0136" unicode="&#x136;" 
d="M92 0v730h90v-313h108l162 313h98l-181 -351l191 -379h-103l-170 338h-105v-338h-90zM190 -240l95 145h105l-105 -145h-95z" />
    <glyph glyph-name="uni0137" unicode="&#x137;" 
d="M95 0v730h90v-407h106l160 227h103l-185 -262l188 -288h-105l-160 245h-107v-245h-90zM190 -240l95 145h105l-105 -145h-95z" />
    <glyph glyph-name="kgreenlandic" unicode="&#x138;" 
d="M97 0v550h90v-227h94l160 227h103l-185 -262l188 -288h-105l-160 245h-95v-245h-90z" />
    <glyph glyph-name="Lacute" unicode="&#x139;" 
d="M115 0v730h90v-648h330v-82h-420zM103 810l106 140h97l-111 -140h-92z" />
    <glyph glyph-name="lacute" unicode="&#x13a;" 
d="M375 0q-48 0 -84 19t-56 54t-20 82v493h-185v82h275v-575q0 -34 19 -53.5t51 -19.5h175v-82h-175zM192 810l106 140h97l-111 -140h-92z" />
    <glyph glyph-name="uni013B" unicode="&#x13b;" 
d="M115 0v730h90v-648h330v-82h-420zM210 -240l95 145h105l-105 -145h-95z" />
    <glyph glyph-name="uni013C" unicode="&#x13c;" 
d="M375 0q-48 0 -84 19t-56 54t-20 82v493h-185v82h275v-575q0 -34 19 -53.5t51 -19.5h175v-82h-175zM210 -240l95 145h105l-105 -145h-95z" />
    <glyph glyph-name="Lcaron" unicode="&#x13d;" 
d="M115 0v730h90v-648h330v-82h-420zM356 550l10 180h85l-20 -180h-75z" />
    <glyph glyph-name="lcaron" unicode="&#x13e;" 
d="M375 0q-48 0 -84 19t-56 54t-20 82v493h-185v82h275v-575q0 -34 19 -53.5t51 -19.5h175v-82h-175zM445 550l10 180h85l-20 -180h-75z" />
    <glyph glyph-name="Ldot" unicode="&#x13f;" 
d="M115 0v730h90v-648h330v-82h-420zM445 260q-38 0 -60.5 22t-22.5 59q0 39 22.5 62t60.5 23t60.5 -23t22.5 -62q0 -37 -22.5 -59t-60.5 -22z" />
    <glyph glyph-name="ldot" unicode="&#x140;" 
d="M355 0q-48 0 -84 19t-56 54t-20 82v493h-185v82h275v-575q0 -34 19 -53.5t51 -19.5h175v-82h-175zM547 260q-38 0 -60.5 22t-22.5 59q0 39 22.5 62t60.5 23t60.5 -23t22.5 -62q0 -37 -22.5 -59t-60.5 -22z" />
    <glyph glyph-name="Lslash" unicode="&#x141;" 
d="M20 230v80l370 250v-80zM115 0v730h90v-648h330v-82h-420z" />
    <glyph glyph-name="lslash" unicode="&#x142;" 
d="M100 230v80l370 250v-80zM375 0q-48 0 -84 19t-56 54t-20 82v493h-185v82h275v-575q0 -34 19 -53.5t51 -19.5h175v-82h-175z" />
    <glyph glyph-name="Nacute" unicode="&#x143;" 
d="M90 0v730h120l223 -625q-2 25 -4.5 61.5t-4 77t-1.5 76.5v410h87v-730h-120l-222 625q2 -24 4 -60.5t3.5 -77t1.5 -77.5v-410h-87zM242 810l106 140h97l-111 -140h-92z" />
    <glyph glyph-name="nacute" unicode="&#x144;" 
d="M92 0v550h90v-105h19l-19 -21q0 65 39 100.5t108 35.5q83 0 132 -51t49 -139v-370h-90v360q0 59 -31.5 90.5t-85.5 31.5q-56 0 -88.5 -34t-32.5 -98v-350h-90zM247 645l106 140h97l-111 -140h-92z" />
    <glyph glyph-name="uni0145" unicode="&#x145;" 
d="M90 0v730h120l223 -625q-2 25 -4.5 61.5t-4 77t-1.5 76.5v410h87v-730h-120l-222 625q2 -24 4 -60.5t3.5 -77t1.5 -77.5v-410h-87zM190 -240l95 145h105l-105 -145h-95z" />
    <glyph glyph-name="uni0146" unicode="&#x146;" 
d="M92 0v550h90v-105h19l-19 -21q0 65 39 100.5t108 35.5q83 0 132 -51t49 -139v-370h-90v360q0 59 -31.5 90.5t-85.5 31.5q-56 0 -88.5 -34t-32.5 -98v-350h-90zM190 -240l95 145h105l-105 -145h-95z" />
    <glyph glyph-name="Ncaron" unicode="&#x147;" 
d="M90 0v730h120l223 -625q-2 25 -4.5 61.5t-4 77t-1.5 76.5v410h87v-730h-120l-222 625q2 -24 4 -60.5t3.5 -77t1.5 -77.5v-410h-87zM259 810l-140 140h99l82 -78l80 78h101l-139 -140h-83z" />
    <glyph glyph-name="ncaron" unicode="&#x148;" 
d="M92 0v550h90v-105h19l-19 -21q0 65 39 100.5t108 35.5q83 0 132 -51t49 -139v-370h-90v360q0 59 -31.5 90.5t-85.5 31.5q-56 0 -88.5 -34t-32.5 -98v-350h-90zM264 645l-140 140h99l82 -78l80 78h101l-139 -140h-83z" />
    <glyph glyph-name="napostrophe" unicode="&#x149;" 
d="M92 0v550h90v-105h19l-19 -21q0 65 39 100.5t108 35.5q83 0 132 -51t49 -139v-370h-90v360q0 59 -31.5 90.5t-85.5 31.5q-56 0 -88.5 -34t-32.5 -98v-350h-90zM0 645l95 145h105l-105 -145h-95z" />
    <glyph glyph-name="Eng" unicode="&#x14a;" 
d="M240 -180v82h65q53 0 84 30.5t31 82.5l-252 610q2 -24 4 -60.5t3.5 -77t1.5 -77.5v-410h-87v730h120l223 -549q-2 25 -4.5 61.5t-4 77.5t-1.5 77v333h87v-715q0 -59 -25.5 -103t-71.5 -68t-108 -24h-65z" />
    <glyph glyph-name="eng" unicode="&#x14b;" 
d="M240 -180v82h63q53 0 84 30.5t31 82.5v345q0 59 -30.5 91.5t-84.5 32.5q-56 0 -87.5 -35t-31.5 -99v-350h-90v550h90v-105h19l-19 -21q0 65 38 100.5t107 35.5q83 0 131 -51t48 -139v-355q0 -59 -25.5 -103t-71.5 -68t-108 -24h-63z" />
    <glyph glyph-name="Omacron" unicode="&#x14c;" 
d="M300 -10q-66 0 -113.5 25t-73 72.5t-25.5 112.5v330q0 66 25.5 113t73 72t113.5 25t113.5 -25t73 -72t25.5 -112v-331q0 -65 -25.5 -112.5t-73 -72.5t-113.5 -25zM300 71q59 0 90.5 33.5t31.5 95.5v330q0 62 -31.5 95.5t-90.5 33.5q-58 0 -90 -33.5t-32 -95.5v-330
q0 -62 32 -95.5t90 -33.5zM140 840v75h320v-75h-320z" />
    <glyph glyph-name="omacron" unicode="&#x14d;" 
d="M300 -8q-66 0 -114 25t-74.5 72.5t-26.5 112.5v146q0 66 26.5 113t74.5 72t114 25t114 -25t74.5 -72t26.5 -112v-147q0 -65 -26.5 -112.5t-74.5 -72.5t-114 -25zM300 72q59 0 92 33t33 97v146q0 64 -33 97t-92 33q-58 0 -91.5 -33t-33.5 -97v-146q0 -64 33.5 -97
t91.5 -33zM140 670v75h320v-75h-320z" />
    <glyph glyph-name="Obreve" unicode="&#x14e;" 
d="M300 -10q-66 0 -113.5 25t-73 72.5t-25.5 112.5v330q0 66 25.5 113t73 72t113.5 25t113.5 -25t73 -72t25.5 -112v-331q0 -65 -25.5 -112.5t-73 -72.5t-113.5 -25zM300 71q59 0 90.5 33.5t31.5 95.5v330q0 62 -31.5 95.5t-90.5 33.5q-58 0 -90 -33.5t-32 -95.5v-330
q0 -62 32 -95.5t90 -33.5zM300 805q-72 0 -116 40t-44 105h71q0 -39 24 -63t64 -24q41 0 65.5 24t24.5 63h71q0 -65 -44 -105t-116 -40z" />
    <glyph glyph-name="obreve" unicode="&#x14f;" 
d="M300 -8q-66 0 -114 25t-74.5 72.5t-26.5 112.5v146q0 66 26.5 113t74.5 72t114 25t114 -25t74.5 -72t26.5 -112v-147q0 -65 -26.5 -112.5t-74.5 -72.5t-114 -25zM300 72q59 0 92 33t33 97v146q0 64 -33 97t-92 33q-58 0 -91.5 -33t-33.5 -97v-146q0 -64 33.5 -97
t91.5 -33zM300 640q-72 0 -116 40t-44 105h71q0 -39 24 -63t64 -24q41 0 65.5 24t24.5 63h71q0 -65 -44 -105t-116 -40z" />
    <glyph glyph-name="Ohungarumlaut" unicode="&#x150;" 
d="M300 -10q-66 0 -113.5 25t-73 72.5t-25.5 112.5v330q0 66 25.5 113t73 72t113.5 25t113.5 -25t73 -72t25.5 -112v-331q0 -65 -25.5 -112.5t-73 -72.5t-113.5 -25zM300 71q59 0 90.5 33.5t31.5 95.5v330q0 62 -31.5 95.5t-90.5 33.5q-58 0 -90 -33.5t-32 -95.5v-330
q0 -62 32 -95.5t90 -33.5zM326 810l110 140h92l-115 -140h-87zM147 810l110 140h92l-115 -140h-87z" />
    <glyph glyph-name="ohungarumlaut" unicode="&#x151;" 
d="M300 -8q-66 0 -114 25t-74.5 72.5t-26.5 112.5v146q0 66 26.5 113t74.5 72t114 25t114 -25t74.5 -72t26.5 -112v-147q0 -65 -26.5 -112.5t-74.5 -72.5t-114 -25zM300 72q59 0 92 33t33 97v146q0 64 -33 97t-92 33q-58 0 -91.5 -33t-33.5 -97v-146q0 -64 33.5 -97
t91.5 -33zM326 645l110 140h92l-115 -140h-87zM147 645l110 140h92l-115 -140h-87z" />
    <glyph glyph-name="OE" unicode="&#x152;" 
d="M195 -10q-48 0 -83 23t-53.5 66t-18.5 101v370q0 59 18.5 101.5t53.5 65.5t83 23q35 0 58 -14.5t36 -35t16 -40.5h5v80h265v-82h-177v-230h152v-82h-152v-254h177v-82h-265v80h-5q-3 -19 -16 -40t-36 -35.5t-58 -14.5zM220 70q42 0 66 29.5t24 80.5v370q0 51 -24 80.5
t-66 29.5t-66 -29.5t-24 -80.5v-370q0 -51 24 -80.5t66 -29.5z" />
    <glyph glyph-name="oe" unicode="&#x153;" 
d="M180 -10q-67 0 -106 43.5t-39 116.5v250q0 74 39 117t106 43q40 0 65.5 -13t38.5 -31.5t14 -35.5h4q2 17 14.5 35.5t38 31.5t65.5 13q67 0 106 -43t39 -117v-150h-222v-100q0 -38 18 -60.5t49 -22.5q26 0 44.5 16t22.5 42h85q-10 -62 -48 -98.5t-94 -36.5q-40 0 -65.5 13
t-38 31.5t-14.5 35.5h-4q-1 -17 -14 -35.5t-38.5 -31.5t-65.5 -13zM190 67q31 0 49 22.5t18 60.5v250q0 38 -18 60.5t-49 22.5q-32 0 -51 -22.5t-19 -60.5v-250q0 -38 19 -60.5t51 -22.5zM343 323h137v77q0 38 -19 60.5t-51 22.5q-31 0 -49 -22.5t-18 -60.5v-77z" />
    <glyph glyph-name="Racute" unicode="&#x154;" 
d="M92 0v730h226q65 0 114 -26.5t76 -73.5t27 -110q0 -74 -38.5 -127t-104.5 -73l153 -320h-106l-140 310h-117v-310h-90zM182 391h136q56 0 90 35.5t34 93.5q0 59 -34 94t-90 35h-136v-258zM242 810l106 140h97l-111 -140h-92z" />
    <glyph glyph-name="racute" unicode="&#x155;" 
d="M111 0v550h88v-105h21l-29 -65q0 89 38.5 134.5t114.5 45.5q87 0 138.5 -54.5t51.5 -147.5v-33h-90v25q0 65 -31.5 99.5t-89.5 34.5q-57 0 -89.5 -35t-32.5 -99v-350h-90zM262 645l106 140h97l-111 -140h-92z" />
    <glyph glyph-name="uni0156" unicode="&#x156;" 
d="M92 0v730h226q65 0 114 -26.5t76 -73.5t27 -110q0 -74 -38.5 -127t-104.5 -73l153 -320h-106l-140 310h-117v-310h-90zM182 391h136q56 0 90 35.5t34 93.5q0 59 -34 94t-90 35h-136v-258zM190 -240l95 145h105l-105 -145h-95z" />
    <glyph glyph-name="uni0157" unicode="&#x157;" 
d="M111 0v550h88v-105h21l-29 -65q0 89 38.5 134.5t114.5 45.5q87 0 138.5 -54.5t51.5 -147.5v-33h-90v25q0 65 -31.5 99.5t-89.5 34.5q-57 0 -89.5 -35t-32.5 -99v-350h-90zM25 -240l95 145h105l-105 -145h-95z" />
    <glyph glyph-name="Rcaron" unicode="&#x158;" 
d="M92 0v730h226q65 0 114 -26.5t76 -73.5t27 -110q0 -74 -38.5 -127t-104.5 -73l153 -320h-106l-140 310h-117v-310h-90zM182 391h136q56 0 90 35.5t34 93.5q0 59 -34 94t-90 35h-136v-258zM259 810l-140 140h99l82 -78l80 78h101l-139 -140h-83z" />
    <glyph glyph-name="rcaron" unicode="&#x159;" 
d="M111 0v550h88v-105h21l-29 -65q0 89 38.5 134.5t114.5 45.5q87 0 138.5 -54.5t51.5 -147.5v-33h-90v25q0 65 -31.5 99.5t-89.5 34.5q-57 0 -89.5 -35t-32.5 -99v-350h-90zM279 645l-140 140h99l82 -78l80 78h101l-139 -140h-83z" />
    <glyph glyph-name="Sacute" unicode="&#x15a;" 
d="M304 -10q-72 0 -123.5 24t-79.5 69t-29 107h90q0 -55 37.5 -87t104.5 -32q63 0 98.5 31t35.5 86q0 44 -23.5 77t-67.5 46l-99 31q-75 23 -115.5 77t-40.5 127q0 59 26.5 102.5t74.5 68t113 24.5q96 0 154 -53.5t59 -142.5h-90q0 54 -32.5 84.5t-91.5 30.5
q-58 0 -90.5 -28t-32.5 -78q0 -45 24 -78t69 -47l100 -32q73 -23 113 -78t40 -129q0 -60 -28 -105t-78.5 -70t-117.5 -25zM242 810l106 140h97l-111 -140h-92z" />
    <glyph glyph-name="sacute" unicode="&#x15b;" 
d="M283 -8q-56 0 -97.5 17.5t-66 49.5t-29.5 76h90q6 -29 32.5 -46t70.5 -17h42q53 0 79 21.5t26 57.5q0 35 -23.5 55.5t-69.5 27.5l-74 12q-81 14 -120.5 50.5t-39.5 106.5q0 74 47 114.5t141 40.5h38q79 0 127 -37t58 -100h-90q-6 26 -30 41.5t-65 15.5h-38
q-51 0 -74.5 -19t-23.5 -57q0 -34 20 -50t63 -23l74 -12q89 -14 129.5 -52t40.5 -110q0 -76 -48.5 -119.5t-146.5 -43.5h-42zM252 645l106 140h97l-111 -140h-92z" />
    <glyph glyph-name="Scircumflex" unicode="&#x15c;" 
d="M304 -10q-72 0 -123.5 24t-79.5 69t-29 107h90q0 -55 37.5 -87t104.5 -32q63 0 98.5 31t35.5 86q0 44 -23.5 77t-67.5 46l-99 31q-75 23 -115.5 77t-40.5 127q0 59 26.5 102.5t74.5 68t113 24.5q96 0 154 -53.5t59 -142.5h-90q0 54 -32.5 84.5t-91.5 30.5
q-58 0 -90.5 -28t-32.5 -78q0 -45 24 -78t69 -47l100 -32q73 -23 113 -78t40 -129q0 -60 -28 -105t-78.5 -70t-117.5 -25zM119 810l139 140h83l140 -140h-99l-82 78l-80 -78h-101z" />
    <glyph glyph-name="scircumflex" unicode="&#x15d;" 
d="M283 -8q-56 0 -97.5 17.5t-66 49.5t-29.5 76h90q6 -29 32.5 -46t70.5 -17h42q53 0 79 21.5t26 57.5q0 35 -23.5 55.5t-69.5 27.5l-74 12q-81 14 -120.5 50.5t-39.5 106.5q0 74 47 114.5t141 40.5h38q79 0 127 -37t58 -100h-90q-6 26 -30 41.5t-65 15.5h-38
q-51 0 -74.5 -19t-23.5 -57q0 -34 20 -50t63 -23l74 -12q89 -14 129.5 -52t40.5 -110q0 -76 -48.5 -119.5t-146.5 -43.5h-42zM129 645l139 140h83l140 -140h-99l-82 78l-80 -78h-101z" />
    <glyph glyph-name="Scedilla" unicode="&#x15e;" 
d="M205 -203v55h70q22 0 35.5 11.5t13.5 24.5q0 17 -27.5 30t-77.5 13l35 95h57l-21 -61q26 -3 54 -13t47 -28t19 -44q0 -34 -33 -58.5t-87 -24.5h-85zM304 -10q-72 0 -123.5 24t-79.5 69t-29 107h90q0 -55 37.5 -87t104.5 -32q63 0 98.5 31t35.5 86q0 44 -23.5 77t-67.5 46
l-99 31q-75 23 -115.5 77t-40.5 127q0 59 26.5 102.5t74.5 68t113 24.5q96 0 154 -53.5t59 -142.5h-90q0 54 -32.5 84.5t-91.5 30.5q-58 0 -90.5 -28t-32.5 -78q0 -45 24 -78t69 -47l100 -32q73 -23 113 -78t40 -129q0 -60 -28 -105t-78.5 -70t-117.5 -25z" />
    <glyph glyph-name="scedilla" unicode="&#x15f;" 
d="M215 -203v55h70q22 0 35.5 11.5t13.5 24.5q0 17 -27.5 30t-77.5 13l35 95h57l-21 -61q26 -3 54 -13t47 -28t19 -44q0 -34 -33 -58.5t-87 -24.5h-85zM283 -8q-56 0 -97.5 17.5t-66 49.5t-29.5 76h90q6 -29 32.5 -46t70.5 -17h42q53 0 79 21.5t26 57.5q0 35 -23.5 55.5
t-69.5 27.5l-74 12q-81 14 -120.5 50.5t-39.5 106.5q0 74 47 114.5t141 40.5h38q79 0 127 -37t58 -100h-90q-6 26 -30 41.5t-65 15.5h-38q-51 0 -74.5 -19t-23.5 -57q0 -34 20 -50t63 -23l74 -12q89 -14 129.5 -52t40.5 -110q0 -76 -48.5 -119.5t-146.5 -43.5h-42z" />
    <glyph glyph-name="Scaron" unicode="&#x160;" 
d="M304 -10q-72 0 -123.5 24t-79.5 69t-29 107h90q0 -55 37.5 -87t104.5 -32q63 0 98.5 31t35.5 86q0 44 -23.5 77t-67.5 46l-99 31q-75 23 -115.5 77t-40.5 127q0 59 26.5 102.5t74.5 68t113 24.5q96 0 154 -53.5t59 -142.5h-90q0 54 -32.5 84.5t-91.5 30.5
q-58 0 -90.5 -28t-32.5 -78q0 -45 24 -78t69 -47l100 -32q73 -23 113 -78t40 -129q0 -60 -28 -105t-78.5 -70t-117.5 -25zM259 810l-140 140h99l82 -78l80 78h101l-139 -140h-83z" />
    <glyph glyph-name="scaron" unicode="&#x161;" 
d="M283 -8q-56 0 -97.5 17.5t-66 49.5t-29.5 76h90q6 -29 32.5 -46t70.5 -17h42q53 0 79 21.5t26 57.5q0 35 -23.5 55.5t-69.5 27.5l-74 12q-81 14 -120.5 50.5t-39.5 106.5q0 74 47 114.5t141 40.5h38q79 0 127 -37t58 -100h-90q-6 26 -30 41.5t-65 15.5h-38
q-51 0 -74.5 -19t-23.5 -57q0 -34 20 -50t63 -23l74 -12q89 -14 129.5 -52t40.5 -110q0 -76 -48.5 -119.5t-146.5 -43.5h-42zM269 645l-140 140h99l82 -78l80 78h101l-139 -140h-83z" />
    <glyph glyph-name="uni0162" unicode="&#x162;" 
d="M248 -203v55h70q22 0 35.5 11.5t13.5 24.5q0 17 -27.5 30t-77.5 13l35 95l48 -26l-12 -35q26 -3 54 -13t47 -28t19 -44q0 -34 -33 -58.5t-87 -24.5h-85zM255 0v649h-200v82h490v-82h-200v-649h-90z" />
    <glyph glyph-name="uni0163" unicode="&#x163;" 
d="M265 -203v55h70q22 0 35.5 11.5t13.5 24.5q0 17 -27.5 30t-77.5 13l35 95h57l-21 -61q26 -3 54 -13t47 -28t19 -44q0 -34 -33 -58.5t-87 -24.5h-85zM360 0q-71 0 -110.5 38t-39.5 107v323h-155v82h155v155h90v-155h220v-82h-220v-323q0 -63 60 -63h150v-82h-150z" />
    <glyph glyph-name="Tcaron" unicode="&#x164;" 
d="M255 0v649h-200v82h490v-82h-200v-649h-90zM259 810l-140 140h99l82 -78l80 78h101l-139 -140h-83z" />
    <glyph glyph-name="tcaron" unicode="&#x165;" 
d="M372 620l90 156h90l-100 -156h-80zM360 0q-71 0 -110.5 38t-39.5 107v323h-155v82h155v155h90v-155h220v-82h-220v-323q0 -63 60 -63h150v-82h-150z" />
    <glyph glyph-name="Tbar" unicode="&#x166;" 
d="M110 295v75h380v-75h-380zM255 0v649h-200v82h490v-82h-200v-649h-90z" />
    <glyph glyph-name="tbar" unicode="&#x167;" 
d="M85 239v75h390v-75h-390zM360 0q-71 0 -110.5 38t-39.5 107v323h-155v82h155v155h90v-155h220v-82h-220v-323q0 -63 60 -63h150v-82h-150z" />
    <glyph glyph-name="Utilde" unicode="&#x168;" 
d="M300 -10q-102 0 -156 56.5t-54 153.5v530h90v-530q0 -60 29.5 -95t90.5 -35q60 0 90 35t30 95v530h90v-530q0 -98 -53.5 -154t-156.5 -56zM370 815q-30 0 -49 10.5t-32 24.5t-25 24.5t-29 10.5q-13 0 -21.5 -8.5t-8.5 -26.5v-30h-65v30q0 45 25 70t65 25q30 0 49 -10.5
t32 -24.5t25 -24.5t29 -10.5q14 0 22 8.5t8 26.5v30h65v-30q0 -45 -24.5 -70t-65.5 -25z" />
    <glyph glyph-name="utilde" unicode="&#x169;" 
d="M299 -10q-95 0 -152 56.5t-57 153.5v350h90v-350q0 -62 32 -96.5t87 -34.5q56 0 88.5 34.5t32.5 96.5v350h90v-350q0 -97 -58 -153.5t-153 -56.5zM370 650q-30 0 -49 10.5t-32 24.5t-25 24.5t-29 10.5q-13 0 -21.5 -8.5t-8.5 -26.5v-30h-65v30q0 45 25 70t65 25
q30 0 49 -10.5t32 -24.5t25 -24.5t29 -10.5q14 0 22 8.5t8 26.5v30h65v-30q0 -45 -24.5 -70t-65.5 -25z" />
    <glyph glyph-name="Umacron" unicode="&#x16a;" 
d="M300 -10q-102 0 -156 56.5t-54 153.5v530h90v-530q0 -60 29.5 -95t90.5 -35q60 0 90 35t30 95v530h90v-530q0 -98 -53.5 -154t-156.5 -56zM140 840v75h320v-75h-320z" />
    <glyph glyph-name="umacron" unicode="&#x16b;" 
d="M299 -10q-95 0 -152 56.5t-57 153.5v350h90v-350q0 -62 32 -96.5t87 -34.5q56 0 88.5 34.5t32.5 96.5v350h90v-350q0 -97 -58 -153.5t-153 -56.5zM140 670v75h320v-75h-320z" />
    <glyph glyph-name="Ubreve" unicode="&#x16c;" 
d="M300 -10q-102 0 -156 56.5t-54 153.5v530h90v-530q0 -60 29.5 -95t90.5 -35q60 0 90 35t30 95v530h90v-530q0 -98 -53.5 -154t-156.5 -56zM300 805q-72 0 -116 40t-44 105h71q0 -39 24 -63t64 -24q41 0 65.5 24t24.5 63h71q0 -65 -44 -105t-116 -40z" />
    <glyph glyph-name="ubreve" unicode="&#x16d;" 
d="M299 -10q-95 0 -152 56.5t-57 153.5v350h90v-350q0 -62 32 -96.5t87 -34.5q56 0 88.5 34.5t32.5 96.5v350h90v-350q0 -97 -58 -153.5t-153 -56.5zM300 640q-72 0 -116 40t-44 105h71q0 -39 24 -63t64 -24q41 0 65.5 24t24.5 63h71q0 -65 -44 -105t-116 -40z" />
    <glyph glyph-name="Uring" unicode="&#x16e;" 
d="M300 -10q-102 0 -156 56.5t-54 153.5v530h90v-530q0 -60 29.5 -95t90.5 -35q60 0 90 35t30 95v530h90v-530q0 -98 -53.5 -154t-156.5 -56zM300 766q-54 0 -87 31.5t-33 82.5t33 82.5t87 31.5t87 -31.5t33 -82.5t-33 -82.5t-87 -31.5zM300 819q27 0 43.5 16.5t16.5 44.5
t-16.5 45t-43.5 17t-43.5 -17t-16.5 -45t16.5 -44.5t43.5 -16.5z" />
    <glyph glyph-name="uring" unicode="&#x16f;" 
d="M299 -10q-95 0 -152 56.5t-57 153.5v350h90v-350q0 -62 32 -96.5t87 -34.5q56 0 88.5 34.5t32.5 96.5v350h90v-350q0 -97 -58 -153.5t-153 -56.5zM300 608q-54 0 -87 31.5t-33 82.5t33 82.5t87 31.5t87 -31.5t33 -82.5t-33 -82.5t-87 -31.5zM300 661q27 0 43.5 16.5
t16.5 44.5t-16.5 45t-43.5 17t-43.5 -17t-16.5 -45t16.5 -44.5t43.5 -16.5z" />
    <glyph glyph-name="Uhungarumlaut" unicode="&#x170;" 
d="M300 -10q-102 0 -156 56.5t-54 153.5v530h90v-530q0 -60 29.5 -95t90.5 -35q60 0 90 35t30 95v530h90v-530q0 -98 -53.5 -154t-156.5 -56zM326 810l110 140h92l-115 -140h-87zM147 810l110 140h92l-115 -140h-87z" />
    <glyph glyph-name="uhungarumlaut" unicode="&#x171;" 
d="M299 -10q-95 0 -152 56.5t-57 153.5v350h90v-350q0 -62 32 -96.5t87 -34.5q56 0 88.5 34.5t32.5 96.5v350h90v-350q0 -97 -58 -153.5t-153 -56.5zM326 645l110 140h92l-115 -140h-87zM147 645l110 140h92l-115 -140h-87z" />
    <glyph glyph-name="Uogonek" unicode="&#x172;" 
d="M379 -203q-55 0 -88.5 26.5t-33.5 66.5q0 14 6.5 30.5t19 34.5t30.5 35h-6.5h-6.5q-66 0 -113 25t-72 72.5t-25 112.5v530h90v-530q0 -62 31 -95.5t89 -33.5q59 0 89.5 33.5t30.5 95.5v530h90v-530q0 -59 -20.5 -104t-59.5 -71l-29 -24q-33 -28 -46 -50.5t-13 -43.5
q0 -22 15 -36t40 -14h60v-60h-78z" />
    <glyph glyph-name="uogonek" unicode="&#x173;" 
d="M372 -203q-55 0 -88.5 26.5t-33.5 66.5q0 22 12.5 45.5t46.5 54.5h-2.5h-3h-3.5q-98 0 -154 56t-56 154v350h90v-350q0 -64 31 -97t89 -33q59 0 89.5 33t30.5 97v350h90v-350q0 -62 -22 -107.5t-65 -71.5l-24 -20q-34 -28 -49 -50.5t-15 -43.5q0 -22 15 -36t40 -14h60
v-60h-78z" />
    <glyph glyph-name="Wcircumflex" unicode="&#x174;" 
d="M109 0l-84 730h86l55 -540q2 -22 4 -45.5t3.5 -44.5t1.5 -35q2 14 3.5 35t4 44.5t5.5 45.5l68 540h93l62 -540q3 -22 5.5 -45.5t5 -44.5t3.5 -35l2.5 35t4 44.5t4.5 45.5l57 540h82l-86 -730h-113l-62 550q-2 23 -4.5 45t-4.5 41t-3 31q-1 -12 -3.5 -31t-4.5 -41t-5 -45
l-67 -550h-113zM119 810l139 140h83l140 -140h-99l-82 78l-80 -78h-101z" />
    <glyph glyph-name="wcircumflex" unicode="&#x175;" 
d="M123 0l-88 550h80l55 -390q3 -22 6.5 -47.5t5.5 -42.5q2 17 6.5 42.5t7.5 47.5l61 390h86l61 -390q3 -22 7.5 -47.5t6.5 -42.5q2 17 6.5 42.5t7.5 47.5l57 390h76l-92 -550h-99l-59 380q-4 28 -9 56t-7 44q-2 -16 -6 -44t-9 -56l-62 -380h-99zM119 645l139 140h83
l140 -140h-99l-82 78l-80 -78h-101z" />
    <glyph glyph-name="Ycircumflex" unicode="&#x176;" 
d="M255 0v273l-220 457h93l145 -300q12 -25 19 -42.5t9 -25.5q2 8 9.5 25.5t19.5 42.5l142 300h93l-220 -457v-273h-90zM119 810l139 140h83l140 -140h-99l-82 78l-80 -78h-101z" />
    <glyph glyph-name="ycircumflex" unicode="&#x177;" 
d="M178 -180l81 214l-204 516h100l128 -340q7 -17 13 -40.5t10 -39.5q4 16 10 39.5t12 40.5l120 340h97l-271 -730h-96zM119 645l139 140h83l140 -140h-99l-82 78l-80 -78h-101z" />
    <glyph glyph-name="Ydieresis" unicode="&#x178;" 
d="M255 0v273l-220 457h93l145 -300q12 -25 19 -42.5t9 -25.5q2 8 9.5 25.5t19.5 42.5l142 300h93l-220 -457v-273h-90zM411 817q-29 0 -46.5 17t-17.5 46q0 30 17.5 47.5t46.5 17.5t46.5 -17.5t17.5 -47.5q0 -29 -17.5 -46t-46.5 -17zM189 817q-29 0 -46.5 17t-17.5 46
q0 30 17.5 47.5t46.5 17.5t46.5 -17.5t17.5 -47.5q0 -29 -17.5 -46t-46.5 -17z" />
    <glyph glyph-name="Zacute" unicode="&#x179;" 
d="M85 0v90l329 558h-324v82h415v-90l-329 -558h339v-82h-430zM242 810l106 140h97l-111 -140h-92z" />
    <glyph glyph-name="zacute" unicode="&#x17a;" 
d="M90 0v90l308 378h-300v82h401v-90l-314 -378h325v-82h-420zM242 645l106 140h97l-111 -140h-92z" />
    <glyph glyph-name="Zdotaccent" unicode="&#x17b;" 
d="M85 0v90l329 558h-324v82h415v-90l-329 -558h339v-82h-430zM300 816q-33 0 -52 17.5t-19 46.5t19 46.5t52 17.5t52 -17.5t19 -46.5t-19 -46.5t-52 -17.5z" />
    <glyph glyph-name="zdotaccent" unicode="&#x17c;" 
d="M90 0v90l308 378h-300v82h401v-90l-314 -378h325v-82h-420zM300 649q-33 0 -52 17t-19 46q0 30 19 47.5t52 17.5t52 -17.5t19 -47.5q0 -29 -19 -46t-52 -17z" />
    <glyph glyph-name="Zcaron" unicode="&#x17d;" 
d="M85 0v90l329 558h-324v82h415v-90l-329 -558h339v-82h-430zM259 810l-140 140h99l82 -78l80 78h101l-139 -140h-83z" />
    <glyph glyph-name="zcaron" unicode="&#x17e;" 
d="M90 0v90l308 378h-300v82h401v-90l-314 -378h325v-82h-420zM259 645l-140 140h99l82 -78l80 78h101l-139 -140h-83z" />
    <glyph glyph-name="longs" unicode="&#x17f;" 
d="M165 0v571q0 71 46.5 115t122.5 44h176v-80h-176q-35 0 -57 -22t-22 -58v-570h-90z" />
    <glyph glyph-name="uni018F" unicode="&#x18f;" 
d="M300 -10q-65 0 -112 26t-72.5 73.5t-25.5 110.5v200h330v131q0 62 -30.5 95.5t-89.5 33.5q-58 0 -89 -34t-31 -96h-90q0 65 25 112t72 72.5t113 25.5q67 0 113.5 -25t71.5 -72t25 -113v-330q0 -63 -25.5 -110.5t-72.5 -73.5t-112 -26zM300 65q62 0 91 35t29 100v130h-247
l7 8v-138q0 -65 29.5 -100t90.5 -35z" />
    <glyph glyph-name="florin" unicode="&#x192;" 
d="M0 -180v82h105q53 0 84 30.5t31 82.5v298h-160v82h160v196q0 66 40.5 102.5t113.5 36.5h161v-80h-161q-32 0 -48 -15t-16 -45v-195h225v-82h-225v-298q0 -59 -25.5 -103t-71.5 -68t-108 -24h-105z" />
    <glyph glyph-name="Ohorn" unicode="&#x1a0;" 
d="M400 635v65h20q16 0 25.5 9.5t9.5 25.5v75h75v-80q0 -43 -28.5 -69t-76.5 -26h-25zM300 -10q-66 0 -113.5 25t-73 72.5t-25.5 112.5v330q0 66 25.5 113t73 72t113.5 25t113.5 -25t73 -72t25.5 -112v-331q0 -65 -25.5 -112.5t-73 -72.5t-113.5 -25zM300 71q59 0 90.5 33.5
t31.5 95.5v330q0 62 -31.5 95.5t-90.5 33.5q-58 0 -90 -33.5t-32 -95.5v-330q0 -62 32 -95.5t90 -33.5z" />
    <glyph glyph-name="ohorn" unicode="&#x1a1;" 
d="M396 465v65h34q17 0 26 9t9 26v75h75v-80q0 -43 -29 -69t-76 -26h-39zM300 -8q-66 0 -114 25t-74.5 72.5t-26.5 112.5v146q0 66 26.5 113t74.5 72t114 25t114 -25t74.5 -72t26.5 -112v-147q0 -65 -26.5 -112.5t-74.5 -72.5t-114 -25zM300 72q59 0 92 33t33 97v146
q0 64 -33 97t-92 33q-58 0 -91.5 -33t-33.5 -97v-146q0 -64 33.5 -97t91.5 -33z" />
    <glyph glyph-name="Uhorn" unicode="&#x1af;" 
d="M435 665v65h50q16 0 25.5 9.5t9.5 25.5v75h75v-80q0 -43 -28.5 -69t-76.5 -26h-55zM300 -10q-102 0 -156 56.5t-54 153.5v530h90v-530q0 -60 29.5 -95t90.5 -35q60 0 90 35t30 95v530h90v-530q0 -98 -53.5 -154t-156.5 -56z" />
    <glyph glyph-name="uhorn" unicode="&#x1b0;" 
d="M90 200v350h90v-350q0 -62 32 -96.5t87 -34.5q56 0 88.5 34.5t32.5 96.5v350h70q17 0 26 9t9 26v75h75v-80q0 -43 -21.5 -69t-68.5 -26v-285q0 -97 -58 -153.5t-153 -56.5t-152 56.5t-57 153.5z" />
    <glyph glyph-name="uni01CD" unicode="&#x1cd;" 
d="M50 0l190 730h121l189 -730h-91l-48 194h-221l-48 -194h-92zM208 270h184l-56 225q-16 64 -25 107t-11 56q-2 -13 -11 -56t-25 -106zM259 810l-140 140h99l82 -78l80 78h101l-139 -140h-83z" />
    <glyph glyph-name="uni01CE" unicode="&#x1ce;" 
d="M252 -10q-87 0 -137 44.5t-50 120.5q0 77 50 121t135 44h170v55q0 51 -30.5 78.5t-86.5 27.5q-49 0 -82 -20.5t-38 -55.5h-90q9 71 67 113t145 42q95 0 150 -49t55 -133v-378h-88v105h-15l15 15q0 -60 -46.5 -95t-123.5 -35zM274 61q64 0 105 32t41 82v78h-168
q-45 0 -71 -25t-26 -68q0 -46 31.5 -72.5t87.5 -26.5zM264 645l-140 140h99l82 -78l80 78h101l-139 -140h-83z" />
    <glyph glyph-name="Gcaron" unicode="&#x1e6;" 
d="M304 -10q-66 0 -114.5 25t-75 72.5t-26.5 112.5v330q0 66 26.5 113t75 72t114.5 25t114 -25.5t74 -72.5t26 -112h-90q0 62 -32.5 95.5t-91.5 33.5t-92.5 -33t-33.5 -95v-331q0 -62 33.5 -96t92.5 -34t91.5 34t32.5 96v90h-148v82h238v-172q0 -64 -26 -111.5t-74 -73
t-114 -25.5zM259 810l-140 140h99l82 -78l80 78h101l-139 -140h-83z" />
    <glyph glyph-name="gcaron" unicode="&#x1e7;" 
d="M161 -180v82h175q42 0 61.5 19t19.5 59v70l2 100h-18l17 15q0 -60 -40 -95t-107 -35q-85 0 -134 55.5t-49 149.5v116q0 94 49 149t134 55q67 0 107 -35t40 -95l-17 15h17v105h89v-570q0 -74 -45.5 -117t-126.5 -43h-174zM298 113q56 0 88 35t32 97v105q0 62 -32 97
t-88 35q-57 0 -88.5 -34t-31.5 -98v-105q0 -64 31.5 -98t88.5 -34zM256 645l-140 140h99l82 -78l80 78h101l-139 -140h-83z" />
    <glyph glyph-name="uni01EA" unicode="&#x1ea;" 
d="M379 -203q-55 0 -88.5 26.5t-33.5 66.5q0 14 6.5 30.5t19 34.5t30.5 35h-6.5h-6.5q-66 0 -113.5 25t-73 72.5t-25.5 112.5v330q0 66 25.5 113t73 72t113.5 25t113.5 -25t73 -72t25.5 -112v-331q0 -59 -21.5 -104t-60.5 -71l-29 -24q-33 -28 -46 -50.5t-13 -43.5
q0 -22 15 -36t40 -14h60v-60h-78zM300 71q59 0 90.5 33.5t31.5 95.5v330q0 62 -31.5 95.5t-90.5 33.5q-58 0 -90 -33.5t-32 -95.5v-330q0 -62 32 -95.5t90 -33.5z" />
    <glyph glyph-name="uni01EB" unicode="&#x1eb;" 
d="M372 -203q-55 0 -88.5 26.5t-33.5 66.5q0 22 12.5 45.5t46.5 54.5h-2.5h-3h-3.5q-66 0 -113.5 25t-73 72.5t-25.5 112.5v150q0 66 25.5 113t73 72t113.5 25t113.5 -25t73 -72t25.5 -112v-151q0 -62 -23 -107.5t-66 -71.5l-24 -20q-34 -28 -49 -50.5t-15 -43.5
q0 -22 15 -36t40 -14h60v-60h-78zM300 70q59 0 90.5 33t31.5 97v150q0 64 -31.5 97t-90.5 33q-58 0 -90 -33t-32 -97v-150q0 -64 32 -97t90 -33z" />
    <glyph glyph-name="uni01F4" unicode="&#x1f4;" 
d="M304 -10q-66 0 -114.5 25t-75 72.5t-26.5 112.5v330q0 66 26.5 113t75 72t114.5 25t114 -25.5t74 -72.5t26 -112h-90q0 62 -32.5 95.5t-91.5 33.5t-92.5 -33t-33.5 -95v-331q0 -62 33.5 -96t92.5 -34t91.5 34t32.5 96v90h-148v82h238v-172q0 -64 -26 -111.5t-74 -73
t-114 -25.5zM242 810l106 140h97l-111 -140h-92z" />
    <glyph glyph-name="uni01F5" unicode="&#x1f5;" 
d="M161 -180v82h175q42 0 61.5 19t19.5 59v70l2 100h-18l17 15q0 -60 -40 -95t-107 -35q-85 0 -134 55.5t-49 149.5v116q0 94 49 149t134 55q67 0 107 -35t40 -95l-17 15h17v105h89v-570q0 -74 -45.5 -117t-126.5 -43h-174zM298 113q56 0 88 35t32 97v105q0 62 -32 97
t-88 35q-57 0 -88.5 -34t-31.5 -98v-105q0 -64 31.5 -98t88.5 -34zM239 645l106 140h97l-111 -140h-92z" />
    <glyph glyph-name="AEacute" unicode="&#x1fc;" 
d="M30 0l145 730h395v-82h-182v-228h157v-82h-157v-256h182v-82h-268v203h-141l-40 -203h-91zM175 278h127v370h-56zM247 810l106 140h97l-111 -140h-92z" />
    <glyph glyph-name="aeacute" unicode="&#x1fd;" 
d="M170 -10q-62 0 -98.5 38t-36.5 102v60q0 62 41.5 98.5t111.5 36.5h74v74q0 44 -16 64t-51 20q-28 0 -45.5 -17t-17.5 -46h-85q0 63 36.5 101.5t96.5 38.5q39 0 65 -13t39.5 -31.5t16.5 -35.5h4q3 17 16 35.5t37.5 31.5t61.5 13q68 0 106.5 -43t38.5 -117v-145h-222v-105
q0 -37 18.5 -60t48.5 -23q32 0 51 17t19 46h85q0 -63 -40 -101.5t-105 -38.5q-37 0 -62 13t-37.5 31.5t-15.5 35.5h-4q-3 -17 -18 -35.5t-42.5 -31.5t-70.5 -13zM190 67q32 0 52 23t20 60v105h-72q-31 0 -48 -17.5t-17 -47.5v-60q0 -29 17.5 -46t47.5 -17zM343 325h137v75
q0 38 -18.5 60.5t-51.5 22.5q-31 0 -49 -22.5t-18 -60.5v-75zM242 645l106 140h97l-111 -140h-92z" />
    <glyph glyph-name="Oslashacute" unicode="&#x1fe;" 
d="M35 -40l446 790h84l-446 -790h-84zM300 -10q-66 0 -113.5 25t-73 72.5t-25.5 112.5v330q0 66 25.5 113t73 72t113.5 25t113.5 -25t73 -72t25.5 -112v-331q0 -65 -25.5 -112.5t-73 -72.5t-113.5 -25zM300 71q59 0 90.5 33.5t31.5 95.5v330q0 62 -31.5 95.5t-90.5 33.5
q-58 0 -90 -33.5t-32 -95.5v-330q0 -62 32 -95.5t90 -33.5zM242 810l106 140h97l-111 -140h-92z" />
    <glyph glyph-name="oslashacute" unicode="&#x1ff;" 
d="M35 -30l439 620h91l-440 -620h-90zM300 -10q-66 0 -113.5 25t-73 72.5t-25.5 112.5v150q0 66 25.5 113t73 72t113.5 25t113.5 -25t73 -72t25.5 -112v-151q0 -65 -25.5 -112.5t-73 -72.5t-113.5 -25zM300 70q60 0 93.5 34.5t33.5 95.5v150q0 62 -33.5 96t-93.5 34
t-93.5 -34t-33.5 -96v-150q0 -61 33.5 -95.5t93.5 -34.5zM242 645l106 140h97l-111 -140h-92z" />
    <glyph glyph-name="uni0218" unicode="&#x218;" 
d="M304 -10q-72 0 -123.5 24t-79.5 69t-29 107h90q0 -55 37.5 -87t104.5 -32q63 0 98.5 31t35.5 86q0 44 -23.5 77t-67.5 46l-99 31q-75 23 -115.5 77t-40.5 127q0 59 26.5 102.5t74.5 68t113 24.5q96 0 154 -53.5t59 -142.5h-90q0 54 -32.5 84.5t-91.5 30.5
q-58 0 -90.5 -28t-32.5 -78q0 -45 24 -78t69 -47l100 -32q73 -23 113 -78t40 -129q0 -60 -28 -105t-78.5 -70t-117.5 -25zM190 -240l95 145h105l-105 -145h-95z" />
    <glyph glyph-name="uni0219" unicode="&#x219;" 
d="M283 -8q-56 0 -97.5 17.5t-66 49.5t-29.5 76h90q6 -29 32.5 -46t70.5 -17h42q53 0 79 21.5t26 57.5q0 35 -23.5 55.5t-69.5 27.5l-74 12q-81 14 -120.5 50.5t-39.5 106.5q0 74 47 114.5t141 40.5h38q79 0 127 -37t58 -100h-90q-6 26 -30 41.5t-65 15.5h-38
q-51 0 -74.5 -19t-23.5 -57q0 -34 20 -50t63 -23l74 -12q89 -14 129.5 -52t40.5 -110q0 -76 -48.5 -119.5t-146.5 -43.5h-42zM179 -240l95 145h105l-105 -145h-95z" />
    <glyph glyph-name="uni021A" unicode="&#x21a;" 
d="M255 0v649h-200v82h490v-82h-200v-649h-90zM155 -240l95 145h105l-105 -145h-95z" />
    <glyph glyph-name="uni021B" unicode="&#x21b;" 
d="M360 0q-71 0 -110.5 38t-39.5 107v323h-155v82h155v155h90v-155h220v-82h-220v-323q0 -63 60 -63h150v-82h-150zM190 -240l95 145h105l-105 -145h-95z" />
    <glyph glyph-name="uni0232" unicode="&#x232;" 
d="M255 0v273l-220 457h93l145 -300q12 -25 19 -42.5t9 -25.5q2 8 9.5 25.5t19.5 42.5l142 300h93l-220 -457v-273h-90zM140 840v75h320v-75h-320z" />
    <glyph glyph-name="uni0233" unicode="&#x233;" 
d="M178 -180l81 214l-204 516h100l128 -340q7 -17 13 -40.5t10 -39.5q4 16 10 39.5t12 40.5l120 340h97l-271 -730h-96zM140 670v75h320v-75h-320z" />
    <glyph glyph-name="uni0237" unicode="&#x237;" 
d="M85 -180v83h129q62 0 96.5 33.5t34.5 94.5v437h-230v82h320v-519q0 -97 -60 -154t-161 -57h-129z" />
    <glyph glyph-name="uni0259" unicode="&#x259;" 
d="M300 -10q-65 0 -112 26t-72.5 73.5t-25.5 110.5v97h332v53q0 65 -30 99.5t-92 34.5q-52 0 -81 -18.5t-37 -55.5h-90q9 69 65 109.5t143 40.5q65 0 112 -26t72.5 -73t25.5 -111v-150q0 -63 -25.5 -110.5t-72.5 -73.5t-112 -26zM300 65q62 0 92 35t30 100v29h-251l7 8v-37
q0 -65 30.5 -100t91.5 -35z" />
    <glyph glyph-name="uni02B9" unicode="&#x2b9;" 
d="M165 410l80 311h130l-130 -311h-80z" />
    <glyph glyph-name="uni02BA" unicode="&#x2ba;" 
d="M330 409l80 311h130l-130 -311h-80zM55 409l80 311h130l-130 -311h-80z" />
    <glyph glyph-name="uni02BC" unicode="&#x2bc;" 
d="M165 465l80 311h130l-130 -311h-80z" />
    <glyph glyph-name="circumflex" unicode="&#x2c6;" 
d="M119 645l139 140h83l140 -140h-99l-82 78l-80 -78h-101z" />
    <glyph glyph-name="caron" unicode="&#x2c7;" 
d="M259 645l-140 140h99l82 -78l80 78h101l-139 -140h-83z" />
    <glyph glyph-name="uni02C9" unicode="&#x2c9;" 
d="M140 670v75h320v-75h-320z" />
    <glyph glyph-name="breve" unicode="&#x2d8;" 
d="M300 640q-72 0 -116 40t-44 105h71q0 -39 24 -63t64 -24q41 0 65.5 24t24.5 63h71q0 -65 -44 -105t-116 -40z" />
    <glyph glyph-name="dotaccent" unicode="&#x2d9;" 
d="M300 649q-33 0 -52 17t-19 46q0 30 19 47.5t52 17.5t52 -17.5t19 -47.5q0 -29 -19 -46t-52 -17z" />
    <glyph glyph-name="ring" unicode="&#x2da;" 
d="M300 608q-54 0 -87 31.5t-33 82.5t33 82.5t87 31.5t87 -31.5t33 -82.5t-33 -82.5t-87 -31.5zM300 661q27 0 43.5 16.5t16.5 44.5t-16.5 45t-43.5 17t-43.5 -17t-16.5 -45t16.5 -44.5t43.5 -16.5z" />
    <glyph glyph-name="ogonek" unicode="&#x2db;" 
d="M307 -203q-55 0 -88.5 26.5t-33.5 66.5q0 29 19 58t66 62h75l-11 -9q-34 -28 -49 -50.5t-15 -43.5q0 -22 15 -36t40 -14h60v-60h-78z" />
    <glyph glyph-name="tilde" unicode="&#x2dc;" 
d="M370 650q-30 0 -49 10.5t-32 24.5t-25 24.5t-29 10.5q-13 0 -21.5 -8.5t-8.5 -26.5v-30h-65v30q0 45 25 70t65 25q30 0 49 -10.5t32 -24.5t25 -24.5t29 -10.5q14 0 22 8.5t8 26.5v30h65v-30q0 -45 -24.5 -70t-65.5 -25z" />
    <glyph glyph-name="hungarumlaut" unicode="&#x2dd;" 
d="M326 645l110 140h92l-115 -140h-87zM147 645l110 140h92l-115 -140h-87z" />
    <glyph glyph-name="uni02F3" unicode="&#x2f3;" 
d="M300 -250q-54 0 -87 27.5t-33 72.5t33 72.5t87 27.5t87 -27.5t33 -72.5t-33 -72.5t-87 -27.5zM299 -199q28 0 44.5 13.5t16.5 35.5q0 26 -16 38t-45 12q-26 0 -42.5 -13.5t-16.5 -36.5q0 -22 16.5 -35.5t42.5 -13.5z" />
    <glyph glyph-name="uni02F7" unicode="&#x2f7;" 
d="M370 -210q-30 0 -49 10.5t-32 24.5t-25 24.5t-29 10.5q-13 0 -21.5 -8.5t-8.5 -26.5v-30h-65v30q0 45 25 70t65 25q30 0 49 -10.5t32 -24.5t25 -24.5t29 -10.5q14 0 22 8.5t8 26.5v30h65v-30q0 -45 -24.5 -70t-65.5 -25z" />
    <glyph glyph-name="gravecomb" unicode="&#x300;" horiz-adv-x="0" 
d="M297 645l-115 140h100l110 -140h-95z" />
    <glyph glyph-name="acutecomb" unicode="&#x301;" horiz-adv-x="0" 
d="M212 645l106 140h97l-111 -140h-92z" />
    <glyph glyph-name="uni0302" unicode="&#x302;" horiz-adv-x="0" 
d="M119 645l139 140h83l140 -140h-99l-82 78l-80 -78h-101z" />
    <glyph glyph-name="tildecomb" unicode="&#x303;" horiz-adv-x="0" 
d="M370 650q-30 0 -49 10.5t-32 24.5t-25 24.5t-29 10.5q-13 0 -21.5 -8.5t-8.5 -26.5v-30h-65v30q0 45 25 70t65 25q30 0 49 -10.5t32 -24.5t25 -24.5t29 -10.5q14 0 22 8.5t8 26.5v30h65v-30q0 -45 -24.5 -70t-65.5 -25z" />
    <glyph glyph-name="uni0304" unicode="&#x304;" horiz-adv-x="0" 
d="M140 670v75h320v-75h-320z" />
    <glyph glyph-name="uni0306" unicode="&#x306;" horiz-adv-x="0" 
d="M300 640q-72 0 -116 40t-44 105h71q0 -39 24 -63t64 -24q41 0 65.5 24t24.5 63h71q0 -65 -44 -105t-116 -40z" />
    <glyph glyph-name="uni0307" unicode="&#x307;" horiz-adv-x="0" 
d="M300 649q-33 0 -52 17t-19 46q0 30 19 47.5t52 17.5t52 -17.5t19 -47.5q0 -29 -19 -46t-52 -17z" />
    <glyph glyph-name="uni0308" unicode="&#x308;" horiz-adv-x="0" 
d="M411 649q-29 0 -46.5 17t-17.5 46q0 30 17.5 47.5t46.5 17.5t46.5 -17.5t17.5 -47.5q0 -29 -17.5 -46t-46.5 -17zM189 649q-29 0 -46.5 17t-17.5 46q0 30 17.5 47.5t46.5 17.5t46.5 -17.5t17.5 -47.5q0 -29 -17.5 -46t-46.5 -17z" />
    <glyph glyph-name="hookabovecomb" unicode="&#x309;" horiz-adv-x="0" 
d="M258 645l50 63q14 19 14 32q0 20 -32 20h-80v65h105q38 0 61.5 -19.5t23.5 -54.5q0 -32 -17 -54l-40 -52h-85z" />
    <glyph glyph-name="uni030A" unicode="&#x30a;" horiz-adv-x="0" 
d="M300 608q-54 0 -87 31.5t-33 82.5t33 82.5t87 31.5t87 -31.5t33 -82.5t-33 -82.5t-87 -31.5zM300 661q27 0 43.5 16.5t16.5 44.5t-16.5 45t-43.5 17t-43.5 -17t-16.5 -45t16.5 -44.5t43.5 -16.5z" />
    <glyph glyph-name="uni030B" unicode="&#x30b;" horiz-adv-x="0" 
d="M326 645l110 140h92l-115 -140h-87zM147 645l110 140h92l-115 -140h-87z" />
    <glyph glyph-name="uni030C" unicode="&#x30c;" horiz-adv-x="0" 
d="M259 645l-140 140h99l82 -78l80 78h101l-139 -140h-83z" />
    <glyph glyph-name="uni030F" unicode="&#x30f;" horiz-adv-x="0" 
d="M274 645h-87l-115 140h92zM453 645h-87l-115 140h92z" />
    <glyph glyph-name="uni0312" unicode="&#x312;" horiz-adv-x="0" 
d="M415 880l-80 -235h-125l130 235h75z" />
    <glyph glyph-name="uni031B" unicode="&#x31b;" horiz-adv-x="0" 
d="M-96 485v65h26q17 0 26 9t9 26v75h75v-80q0 -43 -29 -69t-76 -26h-31z" />
    <glyph glyph-name="dotbelowcomb" unicode="&#x323;" horiz-adv-x="0" 
d="M300 -213q-33 0 -52 17t-19 46q0 30 19 47.5t52 17.5t52 -17.5t19 -47.5q0 -29 -19 -46t-52 -17z" />
    <glyph glyph-name="uni0325" unicode="&#x325;" horiz-adv-x="0" 
d="M300 -250q-54 0 -87 27.5t-33 72.5t33 72.5t87 27.5t87 -27.5t33 -72.5t-33 -72.5t-87 -27.5zM299 -199q28 0 44.5 13.5t16.5 35.5q0 26 -16 38t-45 12q-26 0 -42.5 -13.5t-16.5 -36.5q0 -22 16.5 -35.5t42.5 -13.5z" />
    <glyph glyph-name="uni0326" unicode="&#x326;" horiz-adv-x="0" 
d="M190 -240l95 145h105l-105 -145h-95z" />
    <glyph glyph-name="uni0327" unicode="&#x327;" horiz-adv-x="0" 
d="M205 -203v55h70q22 0 35.5 11.5t13.5 24.5q0 17 -27.5 30t-77.5 13l35 95h57l-21 -61q26 -3 54 -13t47 -28t19 -44q0 -34 -33 -58.5t-87 -24.5h-85z" />
    <glyph glyph-name="uni0328" unicode="&#x328;" horiz-adv-x="0" 
d="M307 -203q-55 0 -88.5 26.5t-33.5 66.5q0 29 19 58t66 62h75l-11 -9q-34 -28 -49 -50.5t-15 -43.5q0 -22 15 -36t40 -14h60v-60h-78z" />
    <glyph glyph-name="uni0336" unicode="&#x336;" horiz-adv-x="0" 
d="M-630 290v70h660v-70h-660z" />
    <glyph glyph-name="uni0338" unicode="&#x338;" horiz-adv-x="0" 
d="M120 -60l297 840h63l-297 -840h-63z" />
    <glyph glyph-name="uni0374" unicode="&#x374;" 
d="M165 410l80 311h130l-130 -311h-80z" />
    <glyph glyph-name="uni0375" unicode="&#x375;" 
d="M165 -160l80 311h130l-130 -311h-80z" />
    <glyph glyph-name="uni037E" unicode="&#x37e;" 
d="M170 -160l80 311h130l-130 -311h-80zM290 410q-33 0 -54 21t-21 54q0 32 21.5 53.5t53.5 21.5h20q32 0 53.5 -21.5t21.5 -53.5q0 -33 -21 -54t-54 -21h-20z" />
    <glyph glyph-name="tonos" unicode="&#x384;" 
d="M212 645l106 140h97l-111 -140h-92z" />
    <glyph glyph-name="dieresistonos" unicode="&#x385;" 
d="M259 769l78 131h80l-88 -131h-70zM411 649q-29 0 -46.5 17t-17.5 46q0 30 17.5 47.5t46.5 17.5t46.5 -17.5t17.5 -47.5q0 -29 -17.5 -46t-46.5 -17zM189 649q-29 0 -46.5 17t-17.5 46q0 30 17.5 47.5t46.5 17.5t46.5 -17.5t17.5 -47.5q0 -29 -17.5 -46t-46.5 -17z" />
    <glyph glyph-name="Alphatonos" unicode="&#x386;" 
d="M50 0l190 730h121l189 -730h-91l-48 194h-221l-48 -194h-92zM208 270h184l-56 225q-16 64 -25 107t-11 56q-2 -13 -11 -56t-25 -106zM10 570l56 160h94l-64 -160h-86z" />
    <glyph glyph-name="anoteleia" unicode="&#x387;" 
d="M300 260q-38 0 -60.5 22t-22.5 59q0 39 22.5 62t60.5 23t60.5 -23t22.5 -62q0 -37 -22.5 -59t-60.5 -22z" />
    <glyph glyph-name="Epsilontonos" unicode="&#x388;" 
d="M100 0v730h420v-82h-331v-226h296v-81h-296v-259h331v-82h-420zM-115 570l56 160h94l-64 -160h-86z" />
    <glyph glyph-name="Etatonos" unicode="&#x389;" 
d="M-115 570l56 160h94l-64 -160h-86zM93 0v730h90v-312h234v312h90v-730h-90v336h-234v-336h-90z" />
    <glyph glyph-name="Iotatonos" unicode="&#x38a;" 
d="M-115 570l56 160h94l-64 -160h-86zM105 0v82h149v566h-149v82h390v-82h-149v-566h149v-82h-390z" />
    <glyph glyph-name="Omicrontonos" unicode="&#x38c;" 
d="M-80 570l56 160h94l-64 -160h-86zM300 -10q-66 0 -113.5 25t-73 72.5t-25.5 112.5v330q0 66 25.5 113t73 72t113.5 25t113.5 -25t73 -72t25.5 -112v-331q0 -65 -25.5 -112.5t-73 -72.5t-113.5 -25zM300 71q59 0 90.5 33.5t31.5 95.5v330q0 62 -31.5 95.5t-90.5 33.5
q-58 0 -90 -33.5t-32 -95.5v-330q0 -62 32 -95.5t90 -33.5z" />
    <glyph glyph-name="Upsilontonos" unicode="&#x38e;" 
d="M-125 570l56 160h94l-64 -160h-86zM255 0v273l-220 457h93l145 -300q12 -25 19 -42.5t9 -25.5q2 8 9.5 25.5t19.5 42.5l142 300h93l-220 -457v-273h-90z" />
    <glyph glyph-name="Omegatonos" unicode="&#x38f;" 
d="M50 0v80h145v5q-24 3 -51 20.5t-45.5 52t-18.5 87.5v280q0 66 27 114t76.5 74.5t116.5 26.5q68 0 117 -26.5t76 -74.5t27 -114v-280q0 -53 -18.5 -87t-45 -51.5t-51.5 -20.5v-6h146v-80h-211v110q40 0 65 36.5t25 93.5v285q0 62 -35.5 98.5t-94.5 36.5t-94.5 -36.5
t-35.5 -98.5v-285q0 -57 25 -93.5t65 -36.5v-110h-210zM-80 570l56 160h94l-64 -160h-86z" />
    <glyph glyph-name="iotadieresistonos" unicode="&#x390;" 
d="M415 0q-48 0 -84 19t-56 54t-20 82v313h-200v82h290v-395q0 -34 19 -53.5t51 -19.5h135v-82h-135zM259 769l78 131h80l-88 -131h-70zM411 649q-29 0 -46.5 17t-17.5 46q0 30 17.5 47.5t46.5 17.5t46.5 -17.5t17.5 -47.5q0 -29 -17.5 -46t-46.5 -17zM189 649
q-29 0 -46.5 17t-17.5 46q0 30 17.5 47.5t46.5 17.5t46.5 -17.5t17.5 -47.5q0 -29 -17.5 -46t-46.5 -17z" />
    <glyph glyph-name="Alpha" unicode="&#x391;" 
d="M50 0l190 730h121l189 -730h-91l-48 194h-221l-48 -194h-92zM208 270h184l-56 225q-16 64 -25 107t-11 56q-2 -13 -11 -56t-25 -106z" />
    <glyph glyph-name="Beta" unicode="&#x392;" 
d="M93 0v730h207q100 0 156.5 -50t56.5 -139q0 -50 -21 -87t-59.5 -57t-92.5 -19v15q58 1 100.5 -22t66 -66t23.5 -102q0 -62 -26 -108t-74 -70.5t-115 -24.5h-222zM181 81h124q63 0 99.5 33.5t36.5 91.5q0 60 -36.5 97.5t-99.5 37.5h-124v-260zM181 419h118q58 0 91.5 31
t33.5 84t-33 84t-91 31h-119v-230z" />
    <glyph glyph-name="Gamma" unicode="&#x393;" 
d="M110 0v730h425v-82h-335v-648h-90z" />
    <glyph glyph-name="uni0394" unicode="&#x394;" 
d="M50 0l190 730h121l189 -730h-91l-123 495q-13 52 -22 97.5t-14 67.5q-4 -22 -13.5 -67t-22.5 -97l-122 -496h-92zM109 0v80h390v-80h-390z" />
    <glyph glyph-name="Epsilon" unicode="&#x395;" 
d="M100 0v730h420v-82h-331v-226h296v-81h-296v-259h331v-82h-420z" />
    <glyph glyph-name="Zeta" unicode="&#x396;" 
d="M85 0v90l329 558h-324v82h415v-90l-329 -558h339v-82h-430z" />
    <glyph glyph-name="Eta" unicode="&#x397;" 
d="M93 0v730h90v-312h234v312h90v-730h-90v336h-234v-336h-90z" />
    <glyph glyph-name="Theta" unicode="&#x398;" 
d="M205 336v82h190v-82h-190zM300 -10q-66 0 -113.5 25t-73 72.5t-25.5 112.5v330q0 66 25.5 113t73 72t113.5 25t113.5 -25t73 -72t25.5 -112v-331q0 -65 -25.5 -112.5t-73 -72.5t-113.5 -25zM300 71q59 0 90.5 33.5t31.5 95.5v330q0 62 -31.5 95.5t-90.5 33.5
q-58 0 -90 -33.5t-32 -95.5v-330q0 -62 32 -95.5t90 -33.5z" />
    <glyph glyph-name="Iota" unicode="&#x399;" 
d="M105 0v82h149v566h-149v82h390v-82h-149v-566h149v-82h-390z" />
    <glyph glyph-name="Kappa" unicode="&#x39a;" 
d="M92 0v730h90v-313h108l162 313h98l-181 -351l191 -379h-103l-170 338h-105v-338h-90z" />
    <glyph glyph-name="Lambda" unicode="&#x39b;" 
d="M50 0l190 730h121l189 -730h-91l-123 495q-11 48 -19.5 85t-12.5 58.5l-4 21.5l-4 -21.5t-12 -58.5t-20 -84l-122 -496h-92z" />
    <glyph glyph-name="Mu" unicode="&#x39c;" 
d="M76 0v730h118l76 -236q11 -32 20 -63.5t13 -48.5q5 17 13 48.5t18 64.5l72 235h118v-730h-88v265q0 44 3 100t8 114.5t10.5 112t9.5 93.5l-118 -365h-95l-119 365q5 -39 10 -90.5t9 -109t7 -114.5t3 -106v-265h-88z" />
    <glyph glyph-name="Nu" unicode="&#x39d;" 
d="M90 0v730h120l223 -625q-2 25 -4.5 61.5t-4 77t-1.5 76.5v410h87v-730h-120l-222 625q2 -24 4 -60.5t3.5 -77t1.5 -77.5v-410h-87z" />
    <glyph glyph-name="Xi" unicode="&#x39e;" 
d="M80 648v82h440v-82h-440zM80 0v82h440v-82h-440zM110 329v82h380v-82h-380z" />
    <glyph glyph-name="Omicron" unicode="&#x39f;" 
d="M300 -10q-66 0 -113.5 25t-73 72.5t-25.5 112.5v330q0 66 25.5 113t73 72t113.5 25t113.5 -25t73 -72t25.5 -112v-331q0 -65 -25.5 -112.5t-73 -72.5t-113.5 -25zM300 71q59 0 90.5 33.5t31.5 95.5v330q0 62 -31.5 95.5t-90.5 33.5q-58 0 -90 -33.5t-32 -95.5v-330
q0 -62 32 -95.5t90 -33.5z" />
    <glyph glyph-name="Pi" unicode="&#x3a0;" 
d="M94 0v730h412v-730h-90v648h-232v-648h-90z" />
    <glyph glyph-name="Rho" unicode="&#x3a1;" 
d="M92 0v730h235q68 0 118 -26.5t77.5 -74.5t27.5 -114q0 -65 -27.5 -113.5t-77.5 -75t-118 -26.5h-145v-300h-90zM182 381h145q59 0 94.5 36.5t35.5 97.5q0 62 -35.5 98t-94.5 36h-145v-268z" />
    <glyph glyph-name="Sigma" unicode="&#x3a3;" 
d="M55 0v82l318 284l-318 282v82h485v-80h-303l-72 3l274 -240v-91l-281 -245l72 3h310v-80h-485z" />
    <glyph glyph-name="Tau" unicode="&#x3a4;" 
d="M255 0v649h-200v82h490v-82h-200v-649h-90z" />
    <glyph glyph-name="Upsilon" unicode="&#x3a5;" 
d="M255 0v273l-220 457h93l145 -300q12 -25 19 -42.5t9 -25.5q2 8 9.5 25.5t19.5 42.5l142 300h93l-220 -457v-273h-90z" />
    <glyph glyph-name="Phi" unicode="&#x3a6;" 
d="M258 -25v70q-61 0 -107 26t-71.5 72.5t-25.5 109.5v234q0 65 25 112.5t71 74t108 26.5v70h84v-70q62 0 108 -26.5t71 -74t25 -112.5v-234q0 -63 -25.5 -109.5t-71 -72.5t-107.5 -26v-70h-84zM258 121v503q-37 0 -64 -16.5t-41.5 -47t-14.5 -73.5v-234q0 -41 14.5 -70.5
t41.5 -45.5t64 -16zM342 121q38 0 64.5 16t41 45.5t14.5 70.5v234q0 43 -14.5 73.5t-41 47t-64.5 16.5v-503z" />
    <glyph glyph-name="Chi" unicode="&#x3a7;" 
d="M40 0l210 370l-199 360h104l113 -216q9 -17 18.5 -36.5t15.5 -30.5q5 11 14.5 30.5t18.5 36.5l115 216h99l-199 -354l210 -376h-103l-125 232q-9 17 -18.5 36.5t-14.5 31.5q-5 -12 -14.5 -31t-18.5 -36l-126 -233h-100z" />
    <glyph glyph-name="Psi" unicode="&#x3a8;" 
d="M258 0v170q-61 0 -107 26t-71.5 72.5t-25.5 109.5v352h84v-352q0 -41 14.5 -70.5t41.5 -45.5t64 -16v484h84v-484q38 0 64.5 16t41 45.5t14.5 70.5v352h84v-352q0 -63 -25.5 -109.5t-71 -72.5t-107.5 -26v-170h-84z" />
    <glyph glyph-name="uni03A9" unicode="&#x3a9;" 
d="M50 0v80h145v5q-24 3 -51 20.5t-45.5 52t-18.5 87.5v280q0 66 27 114t76.5 74.5t116.5 26.5q68 0 117 -26.5t76 -74.5t27 -114v-280q0 -53 -18.5 -87t-45 -51.5t-51.5 -20.5v-6h146v-80h-211v110q40 0 65 36.5t25 93.5v285q0 62 -35.5 98.5t-94.5 36.5t-94.5 -36.5
t-35.5 -98.5v-285q0 -57 25 -93.5t65 -36.5v-110h-210z" />
    <glyph glyph-name="Iotadieresis" unicode="&#x3aa;" 
d="M105 0v82h149v566h-149v82h390v-82h-149v-566h149v-82h-390zM411 817q-29 0 -46.5 17t-17.5 46q0 30 17.5 47.5t46.5 17.5t46.5 -17.5t17.5 -47.5q0 -29 -17.5 -46t-46.5 -17zM189 817q-29 0 -46.5 17t-17.5 46q0 30 17.5 47.5t46.5 17.5t46.5 -17.5t17.5 -47.5
q0 -29 -17.5 -46t-46.5 -17z" />
    <glyph glyph-name="Upsilondieresis" unicode="&#x3ab;" 
d="M255 0v273l-220 457h93l145 -300q12 -25 19 -42.5t9 -25.5q2 8 9.5 25.5t19.5 42.5l142 300h93l-220 -457v-273h-90zM411 817q-29 0 -46.5 17t-17.5 46q0 30 17.5 47.5t46.5 17.5t46.5 -17.5t17.5 -47.5q0 -29 -17.5 -46t-46.5 -17zM189 817q-29 0 -46.5 17t-17.5 46
q0 30 17.5 47.5t46.5 17.5t46.5 -17.5t17.5 -47.5q0 -29 -17.5 -46t-46.5 -17z" />
    <glyph glyph-name="alphatonos" unicode="&#x3ac;" 
d="M268 -10q-83 0 -130.5 55t-47.5 150v161q0 95 48 149.5t130 54.5q68 0 108 -36.5t40 -99.5l-18 21h18v105h90v-550h-90v105h-18l18 21q0 -62 -40 -99t-108 -37zM298 68q56 0 87 35t31 97v150q0 62 -31 97t-87 35q-57 0 -87.5 -34t-30.5 -98v-150q0 -64 30.5 -98t87.5 -34
zM236 645l106 140h97l-111 -140h-92z" />
    <glyph glyph-name="epsilontonos" unicode="&#x3ad;" 
d="M326 -7h-47q-91 0 -145 43t-54 116q0 62 32.5 95t102.5 38v4q-58 4 -90 35.5t-32 80.5q0 47 22.5 81t64.5 52.5t101 18.5h50q80 0 134.5 -40t64.5 -102h-95q-6 26 -34.5 44t-69.5 18h-50q-30 0 -50.5 -9t-31.5 -26t-11 -42q0 -36 24 -58t70 -22h118v-78h-121
q-51 0 -77.5 -23t-26.5 -63q0 -37 27.5 -60t76.5 -23h47q47 0 77 16t37 41h95q-10 -63 -66 -100t-143 -37zM226 645l106 140h97l-111 -140h-92z" />
    <glyph glyph-name="etatonos" unicode="&#x3ae;" 
d="M92 0v550h90v-105h19l-19 -21q0 65 39 100.5t108 35.5q83 0 132 -51t49 -139v-550h-90v540q0 59 -31.5 91.5t-85.5 32.5q-56 0 -88.5 -35t-32.5 -99v-350h-90zM247 645l106 140h97l-111 -140h-92z" />
    <glyph glyph-name="iotatonos" unicode="&#x3af;" 
d="M415 0q-48 0 -84 19t-56 54t-20 82v313h-200v82h290v-395q0 -34 19 -53.5t51 -19.5h135v-82h-135zM212 645l106 140h97l-111 -140h-92z" />
    <glyph glyph-name="upsilondieresistonos" unicode="&#x3b0;" 
d="M299 -10q-95 0 -152 56.5t-57 153.5v350h90v-350q0 -62 32 -96.5t87 -34.5q56 0 88.5 34.5t32.5 96.5v350h90v-350q0 -97 -58 -153.5t-153 -56.5zM259 769l78 131h80l-88 -131h-70zM411 649q-29 0 -46.5 17t-17.5 46q0 30 17.5 47.5t46.5 17.5t46.5 -17.5t17.5 -47.5
q0 -29 -17.5 -46t-46.5 -17zM189 649q-29 0 -46.5 17t-17.5 46q0 30 17.5 47.5t46.5 17.5t46.5 -17.5t17.5 -47.5q0 -29 -17.5 -46t-46.5 -17z" />
    <glyph glyph-name="alpha" unicode="&#x3b1;" 
d="M268 -10q-83 0 -130.5 55t-47.5 150v161q0 95 48 149.5t130 54.5q68 0 108 -36.5t40 -99.5l-18 21h18v105h90v-550h-90v105h-18l18 21q0 -62 -40 -99t-108 -37zM298 68q56 0 87 35t31 97v150q0 62 -31 97t-87 35q-57 0 -87.5 -34t-30.5 -98v-150q0 -64 30.5 -98t87.5 -34
z" />
    <glyph glyph-name="beta" unicode="&#x3b2;" 
d="M92 -180v714q0 62 26 108.5t73.5 72t111.5 25.5t112 -21.5t74.5 -63t26.5 -101.5q0 -61 -31 -104t-86 -59q61 -16 96 -63.5t35 -119.5q0 -61 -27 -108t-75 -73.5t-113 -26.5h-133v-180h-90zM182 82h123q60 0 95 35.5t35 93.5t-34.5 91t-95.5 33h-44v78h42q56 0 87.5 35
t31.5 88q0 58 -32 90t-87 32t-88 -33t-33 -91v-452z" />
    <glyph glyph-name="gamma" unicode="&#x3b3;" 
d="M255 -180v180l-195 550h92l120 -365q8 -24 13.5 -44.5t9.5 -36t5.5 -24.5l1.5 -9l2 9t5.5 24.5t9.5 36t13 44.5l117 365h91l-195 -550v-180h-90z" />
    <glyph glyph-name="delta" unicode="&#x3b4;" 
d="M70 217q0 63 25.5 112t70 77t101.5 28q24 0 44.5 -5.5t28.5 -14.5l4 3l-236 227v86h372v-75h-282l225 -214q22 -20 46 -52.5t41.5 -76.5t17.5 -97q0 -65 -29.5 -116t-81 -80t-118.5 -29t-119 29t-81 80t-29 118zM162 220q0 -44 17.5 -78t48.5 -53t71 -19q41 0 72 19
t49 53t18 78t-18 78t-49 53t-72 19q-40 0 -71 -19t-48.5 -53t-17.5 -78z" />
    <glyph glyph-name="epsilon" unicode="&#x3b5;" 
d="M326 -7h-47q-91 0 -145 43t-54 116q0 62 32.5 95t102.5 38v4q-58 4 -90 35.5t-32 80.5q0 47 22.5 81t64.5 52.5t101 18.5h50q80 0 134.5 -40t64.5 -102h-95q-6 26 -34.5 44t-69.5 18h-50q-30 0 -50.5 -9t-31.5 -26t-11 -42q0 -36 24 -58t70 -22h118v-78h-121
q-51 0 -77.5 -23t-26.5 -63q0 -37 27.5 -60t76.5 -23h47q47 0 77 16t37 41h95q-10 -63 -66 -100t-143 -37z" />
    <glyph glyph-name="zeta" unicode="&#x3b6;" 
d="M68 182q0 34 10 67t33 70t62 83.5t98 106.5t141 139h-322v82h415v-90l-169 -174q-50 -51 -84 -91t-55 -73.5t-30 -62t-9 -57.5q0 -47 27.5 -74.5t74.5 -27.5h137q74 0 109 -29t29 -99l-12 -132h-90l12 132q5 48 -48 48h-138q-91 0 -141 48t-50 134z" />
    <glyph glyph-name="eta" unicode="&#x3b7;" 
d="M92 0v550h90v-105h19l-19 -21q0 65 39 100.5t108 35.5q83 0 132 -51t49 -139v-550h-90v540q0 59 -31.5 91.5t-85.5 32.5q-56 0 -88.5 -35t-32.5 -99v-350h-90z" />
    <glyph glyph-name="theta" unicode="&#x3b8;" 
d="M300 -10q-66 0 -113.5 25t-73 72.5t-25.5 112.5v320q0 66 25.5 113t73 72t113.5 25t113.5 -25t73 -72t25.5 -112v-321q0 -65 -25.5 -112.5t-73 -72.5t-113.5 -25zM300 70q59 0 90.5 33t31.5 97v320q0 64 -31.5 97t-90.5 33q-58 0 -90 -33t-32 -97v-320q0 -64 32 -97
t90 -33zM164 400h269v-78h-269v78z" />
    <glyph glyph-name="iota" unicode="&#x3b9;" 
d="M415 0q-48 0 -84 19t-56 54t-20 82v313h-200v82h290v-395q0 -34 19 -53.5t51 -19.5h135v-82h-135z" />
    <glyph glyph-name="kappa" unicode="&#x3ba;" 
d="M97 0v550h90v-227h94l160 227h103l-185 -262l188 -288h-105l-160 245h-95v-245h-90z" />
    <glyph glyph-name="lambda" unicode="&#x3bb;" 
d="M50 0l215 541l-74 189h96l263 -730h-98l-116 357q-11 35 -18.5 65t-9.5 45q-2 -15 -9.5 -45t-20.5 -65l-130 -357h-98z" />
    <glyph glyph-name="uni03BC" unicode="&#x3bc;" 
d="M93 -180v730h90v-356q0 -59 30.5 -92t85.5 -33q56 0 87 33t31 92v356h90v-356q0 -94 -53 -149t-145 -55q-46 0 -78 12.5t-50 30.5t-23 34h-4q1 0 5 -13.5t7.5 -32t4.5 -34.5l11 -167h-89z" />
    <glyph glyph-name="nu" unicode="&#x3bd;" 
d="M239 0l-184 550h92l122 -370q11 -33 20 -63.5t13 -47.5q5 17 14 47.5t19 63.5l119 370h91l-184 -550h-122z" />
    <glyph glyph-name="xi" unicode="&#x3be;" 
d="M66 207q0 71 34.5 118t100.5 66q-58 17 -89.5 60.5t-31.5 105.5q0 86 61.5 135.5t165.5 49.5q71 0 121.5 -25t78 -71t27.5 -109h-90q0 56 -37 90.5t-98 34.5t-98 -30.5t-37 -86.5q0 -55 37 -93t98 -38h89v-82h-89q-71 0 -109.5 -32.5t-38.5 -92.5t38.5 -92.5t109.5 -32.5
h88q74 0 109 -29t29 -99l-12 -132h-90l12 132q5 48 -48 48h-88q-118 0 -180.5 55.5t-62.5 149.5z" />
    <glyph glyph-name="omicron" unicode="&#x3bf;" 
d="M300 -8q-66 0 -114 25t-74.5 72.5t-26.5 112.5v146q0 66 26.5 113t74.5 72t114 25t114 -25t74.5 -72t26.5 -112v-147q0 -65 -26.5 -112.5t-74.5 -72.5t-114 -25zM300 72q59 0 92 33t33 97v146q0 64 -33 97t-92 33q-58 0 -91.5 -33t-33.5 -97v-146q0 -64 33.5 -97
t91.5 -33z" />
    <glyph glyph-name="pi" unicode="&#x3c0;" 
d="M536 -5q-76 0 -121.5 48t-45.5 127v300h-174v-470h-90v471h-80v79h529v-76h-95v-310q0 -41 18.5 -63t53.5 -22h24v-84h-19z" />
    <glyph glyph-name="rho" unicode="&#x3c1;" 
d="M94 -180v536q0 63 25.5 109t72.5 70.5t111 24.5q65 0 111 -24.5t71 -70t25 -109.5v-161q0 -63 -21.5 -109t-61 -71t-95.5 -25q-67 0 -107.5 37t-40.5 99l18 -21h-20l2 -125v-160h-90zM302 68q57 0 87.5 34t30.5 98v150q0 64 -30.5 98t-87.5 34t-87.5 -34t-30.5 -98v-150
q0 -62 31.5 -97t86.5 -35z" />
    <glyph glyph-name="uni03C2" unicode="&#x3c2;" 
d="M88 206v144q0 66 26.5 113t75 72t114.5 25q64 0 112 -23t75 -65.5t27 -101.5h-90q0 53 -34 81.5t-90 28.5q-59 0 -92.5 -33.5t-33.5 -95.5v-144q0 -63 33.5 -95t92.5 -32h95q74 0 109 -29t29 -99l-12 -132h-90l12 132q5 48 -48 48h-95q-100 0 -158 54t-58 152z" />
    <glyph glyph-name="sigma" unicode="&#x3c3;" 
d="M88 200v150q0 66 25.5 113t73 72t113.5 25h230v-80h-115v-18l-21 20q19 0 39.5 -10t38.5 -27.5t29 -41.5t11 -52v-151q0 -65 -25.5 -112.5t-73 -72.5t-113.5 -25t-113.5 25t-73 72.5t-25.5 112.5zM178 200q0 -64 32 -97t90 -33q59 0 90.5 33t31.5 97v150q0 64 -31.5 97
t-90.5 33q-58 0 -90 -33t-32 -97v-150z" />
    <glyph glyph-name="tau" unicode="&#x3c4;" 
d="M385 0q-71 0 -110.5 38t-39.5 107v323h-180v82h465v-82h-195v-323q0 -63 60 -63h125v-82h-125z" />
    <glyph glyph-name="upsilon" unicode="&#x3c5;" 
d="M299 -10q-95 0 -152 56.5t-57 153.5v350h90v-350q0 -62 32 -96.5t87 -34.5q56 0 88.5 34.5t32.5 96.5v350h90v-350q0 -97 -58 -153.5t-153 -56.5z" />
    <glyph glyph-name="phi" unicode="&#x3c6;" 
d="M259 -180v180q-96 0 -150 54.5t-54 147.5v348h83v-348q0 -61 33 -96t93 -35v479h108q80 0 126.5 -43t46.5 -117v-188q0 -93 -54 -147.5t-150 -54.5v-180h-82zM336 71q59 0 92.5 35t33.5 96v188q0 42 -24 66t-66 24h-36v-409z" />
    <glyph glyph-name="chi" unicode="&#x3c7;" 
d="M40 -180l210 370l-199 360h104l113 -216q9 -17 18.5 -36.5t15.5 -30.5q5 11 14.5 30.5t18.5 36.5l115 216h99l-199 -354l210 -376h-103l-125 232q-9 17 -18.5 36.5t-14.5 31.5q-5 -12 -14.5 -31t-18.5 -36l-126 -233h-100z" />
    <glyph glyph-name="psi" unicode="&#x3c8;" 
d="M259 -180v180q-97 0 -151 54.5t-54 147.5v348h83v-348q0 -61 34 -96t93 -35v479h72v-479q59 0 93 35t34 96v348h83v-348q0 -93 -54 -147.5t-151 -54.5v-180h-82z" />
    <glyph glyph-name="omega" unicode="&#x3c9;" 
d="M185 -10q-60 0 -95 43t-35 121v202q0 83 39 138.5t101 65.5v-95q-25 -7 -41 -36.5t-16 -72.5v-203q0 -39 16.5 -61t46.5 -22t46.5 22t16.5 61v203h72v-203q0 -39 16.5 -61t46.5 -22t46.5 22t16.5 61v203q0 43 -18 70t-44 34v95q62 -10 103.5 -63t41.5 -136v-202
q0 -78 -35 -121t-95 -43q-54 0 -86 35.5t-32 96.5h6q0 -61 -32 -96.5t-86 -35.5z" />
    <glyph glyph-name="iotadieresis" unicode="&#x3ca;" 
d="M415 0q-48 0 -84 19t-56 54t-20 82v313h-200v82h290v-395q0 -34 19 -53.5t51 -19.5h135v-82h-135zM411 649q-29 0 -46.5 17t-17.5 46q0 30 17.5 47.5t46.5 17.5t46.5 -17.5t17.5 -47.5q0 -29 -17.5 -46t-46.5 -17zM189 649q-29 0 -46.5 17t-17.5 46q0 30 17.5 47.5
t46.5 17.5t46.5 -17.5t17.5 -47.5q0 -29 -17.5 -46t-46.5 -17z" />
    <glyph glyph-name="upsilondieresis" unicode="&#x3cb;" 
d="M299 -10q-95 0 -152 56.5t-57 153.5v350h90v-350q0 -62 32 -96.5t87 -34.5q56 0 88.5 34.5t32.5 96.5v350h90v-350q0 -97 -58 -153.5t-153 -56.5zM411 649q-29 0 -46.5 17t-17.5 46q0 30 17.5 47.5t46.5 17.5t46.5 -17.5t17.5 -47.5q0 -29 -17.5 -46t-46.5 -17zM189 649
q-29 0 -46.5 17t-17.5 46q0 30 17.5 47.5t46.5 17.5t46.5 -17.5t17.5 -47.5q0 -29 -17.5 -46t-46.5 -17z" />
    <glyph glyph-name="omicrontonos" unicode="&#x3cc;" 
d="M300 -8q-66 0 -114 25t-74.5 72.5t-26.5 112.5v146q0 66 26.5 113t74.5 72t114 25t114 -25t74.5 -72t26.5 -112v-147q0 -65 -26.5 -112.5t-74.5 -72.5t-114 -25zM300 72q59 0 92 33t33 97v146q0 64 -33 97t-92 33q-58 0 -91.5 -33t-33.5 -97v-146q0 -64 33.5 -97
t91.5 -33zM242 645l106 140h97l-111 -140h-92z" />
    <glyph glyph-name="upsilontonos" unicode="&#x3cd;" 
d="M299 -10q-95 0 -152 56.5t-57 153.5v350h90v-350q0 -62 32 -96.5t87 -34.5q56 0 88.5 34.5t32.5 96.5v350h90v-350q0 -97 -58 -153.5t-153 -56.5zM242 645l106 140h97l-111 -140h-92z" />
    <glyph glyph-name="omegatonos" unicode="&#x3ce;" 
d="M185 -10q-60 0 -95 43t-35 121v202q0 83 39 138.5t101 65.5v-95q-25 -7 -41 -36.5t-16 -72.5v-203q0 -39 16.5 -61t46.5 -22t46.5 22t16.5 61v203h72v-203q0 -39 16.5 -61t46.5 -22t46.5 22t16.5 61v203q0 43 -18 70t-44 34v95q62 -10 103.5 -63t41.5 -136v-202
q0 -78 -35 -121t-95 -43q-54 0 -86 35.5t-32 96.5h6q0 -61 -32 -96.5t-86 -35.5zM232 645l106 140h97l-111 -140h-92z" />
    <glyph glyph-name="uni03CF" unicode="&#x3cf;" 
d="M364 -180v79h29q45 0 73 27.5t28 73.5v71h86v-71q0 -88 -47.5 -134t-139.5 -46h-29zM92 0v730h90v-313h108l162 313h98l-181 -351l191 -379h-103l-170 338h-105v-338h-90z" />
    <glyph glyph-name="uni03D7" unicode="&#x3d7;" 
d="M334 -180v79h29q45 0 73 27.5t28 73.5v71h86v-71q0 -88 -47.5 -134t-139.5 -46h-29zM94 0v550h86v-300q0 -29 -1.5 -61t-4 -60.5t-5.5 -48.5l222 470h115v-550h-86v300q0 29 1.5 61t4.5 61.5t5 48.5l-222 -471h-115z" />
    <glyph glyph-name="uni0401" unicode="&#x401;" 
d="M100 0v730h420v-82h-331v-226h296v-81h-296v-259h331v-82h-420zM431 817q-29 0 -46.5 17t-17.5 46q0 30 17.5 47.5t46.5 17.5t46.5 -17.5t17.5 -47.5q0 -29 -17.5 -46t-46.5 -17zM209 817q-29 0 -46.5 17t-17.5 46q0 30 17.5 47.5t46.5 17.5t46.5 -17.5t17.5 -47.5
q0 -29 -17.5 -46t-46.5 -17z" />
    <glyph glyph-name="uni0402" unicode="&#x402;" 
d="M260 -180v82h70q53 0 84 30.5t31 82.5v281q0 61 -22.5 92t-64.5 31q-56 0 -114 -62l-44 -47v-310h-90v651h-110v79h320v-79h-120v-255l16 17q76 82 163 82q71 0 113.5 -48.5t42.5 -130.5v-301q0 -59 -25.5 -103t-71.5 -68t-108 -24h-70z" />
    <glyph glyph-name="uni0403" unicode="&#x403;" 
d="M110 0v730h425v-82h-335v-648h-90zM247 810l106 140h97l-111 -140h-92z" />
    <glyph glyph-name="uni0404" unicode="&#x404;" 
d="M304 -10q-66 0 -114 25t-74 72.5t-26 112.5v330q0 66 26 113t74 72t114 25t113.5 -25.5t73 -72.5t25.5 -112h-90q0 62 -31.5 96t-90.5 34t-91.5 -33.5t-32.5 -95.5v-122h225v-82h-225v-127q0 -62 32.5 -96t91.5 -34t90.5 34t31.5 96h90q0 -64 -25.5 -111.5t-73 -73
t-113.5 -25.5z" />
    <glyph glyph-name="uni0405" unicode="&#x405;" 
d="M304 -10q-72 0 -123.5 24t-79.5 69t-29 107h90q0 -55 37.5 -87t104.5 -32q63 0 98.5 31t35.5 86q0 44 -23.5 77t-67.5 46l-99 31q-75 23 -115.5 77t-40.5 127q0 59 26.5 102.5t74.5 68t113 24.5q96 0 154 -53.5t59 -142.5h-90q0 54 -32.5 84.5t-91.5 30.5
q-58 0 -90.5 -28t-32.5 -78q0 -45 24 -78t69 -47l100 -32q73 -23 113 -78t40 -129q0 -60 -28 -105t-78.5 -70t-117.5 -25z" />
    <glyph glyph-name="uni0406" unicode="&#x406;" 
d="M105 0v82h149v566h-149v82h390v-82h-149v-566h149v-82h-390z" />
    <glyph glyph-name="uni0407" unicode="&#x407;" 
d="M105 0v82h149v566h-149v82h390v-82h-149v-566h149v-82h-390zM411 817q-29 0 -46.5 17t-17.5 46q0 30 17.5 47.5t46.5 17.5t46.5 -17.5t17.5 -47.5q0 -29 -17.5 -46t-46.5 -17zM189 817q-29 0 -46.5 17t-17.5 46q0 30 17.5 47.5t46.5 17.5t46.5 -17.5t17.5 -47.5
q0 -29 -17.5 -46t-46.5 -17z" />
    <glyph glyph-name="uni0408" unicode="&#x408;" 
d="M270 -10q-105 0 -165 59t-60 161h90q0 -67 35.5 -103.5t99.5 -36.5t99.5 36.5t35.5 103.5v438h-175v82h265v-520q0 -102 -60.5 -161t-164.5 -59z" />
    <glyph glyph-name="uni0409" unicode="&#x409;" 
d="M-5 -5v80h18q26 0 40.5 32t15.5 87l5 536h286v-300h60q72 0 116 -42.5t44 -112.5v-120q0 -70 -44 -112.5t-116 -42.5h-140v655h-127l-5 -461q-1 -92 -38 -145.5t-100 -53.5h-15zM360 75h60q36 0 58 22t22 58v120q0 36 -22 58t-58 22h-60v-280z" />
    <glyph glyph-name="uni040A" unicode="&#x40a;" 
d="M53 0v730h80v-300h147v300h80v-300h60q74 0 117 -42t43 -113v-120q0 -71 -43 -113t-117 -42h-140v355h-147v-355h-80zM360 75h60q38 0 59 21.5t21 58.5v120q0 38 -21 59t-59 21h-60v-280z" />
    <glyph glyph-name="uni040B" unicode="&#x40b;" 
d="M110 0v651h-110v79h320v-79h-120v-255l16 17q76 82 163 82q71 0 113.5 -48.5t42.5 -130.5v-316h-90v296q0 61 -22.5 92t-64.5 31q-56 0 -114 -62l-44 -47v-310h-90z" />
    <glyph glyph-name="uni040C" unicode="&#x40c;" 
d="M242 810l106 140h97l-111 -140h-92zM92 0v730h90v-313h108l162 313h98l-181 -351l191 -379h-103l-170 338h-105v-338h-90z" />
    <glyph glyph-name="uni040E" unicode="&#x40e;" 
d="M191 0l74 189l-215 541h98l131 -357q13 -34 21 -64.5t10 -45.5q2 15 9 45.5t18 64.5l115 357h98l-263 -730h-96zM300 805q-72 0 -116 40t-44 105h71q0 -39 24 -63t64 -24q41 0 65.5 24t24.5 63h71q0 -65 -44 -105t-116 -40z" />
    <glyph glyph-name="uni040F" unicode="&#x40f;" 
d="M255 -125v125h-161v730h90v-648h232v648h90v-730h-161v-125h-90z" />
    <glyph glyph-name="uni0410" unicode="&#x410;" 
d="M50 0l190 730h121l189 -730h-91l-48 194h-221l-48 -194h-92zM208 270h184l-56 225q-16 64 -25 107t-11 56q-2 -13 -11 -56t-25 -106z" />
    <glyph glyph-name="uni0411" unicode="&#x411;" 
d="M94 0v730h406v-82h-316v-220h121q70 0 120 -26.5t77.5 -74.5t27.5 -113t-27.5 -113t-77.5 -74.5t-120 -26.5h-211zM184 82h121q62 0 97 35.5t35 96.5q0 62 -35 97t-97 35h-121v-264z" />
    <glyph glyph-name="uni0412" unicode="&#x412;" 
d="M93 0v730h207q100 0 156.5 -50t56.5 -139q0 -50 -21 -87t-59.5 -57t-92.5 -19v15q58 1 100.5 -22t66 -66t23.5 -102q0 -62 -26 -108t-74 -70.5t-115 -24.5h-222zM181 81h124q63 0 99.5 33.5t36.5 91.5q0 60 -36.5 97.5t-99.5 37.5h-124v-260zM181 419h118q58 0 91.5 31
t33.5 84t-33 84t-91 31h-119v-230z" />
    <glyph glyph-name="uni0413" unicode="&#x413;" 
d="M110 0v730h425v-82h-335v-648h-90z" />
    <glyph glyph-name="uni0414" unicode="&#x414;" 
d="M25 -140v217h45q11 20 23 54t21 77t10 90l7 432h374v-653h70v-217h-80v140h-390v-140h-80zM164 77h251v573h-198l-5 -352q-1 -77 -17 -136t-31 -85z" />
    <glyph glyph-name="uni0415" unicode="&#x415;" 
d="M100 0v730h420v-82h-331v-226h296v-81h-296v-259h331v-82h-420z" />
    <glyph glyph-name="uni0416" unicode="&#x416;" 
d="M12 0l132 376l-122 354h94l104 -324h42v324h76v-324h43l103 324h94l-120 -355l130 -375h-93l-112 342h-45v-342h-76v342h-45l-113 -342h-92z" />
    <glyph glyph-name="uni0417" unicode="&#x417;" 
d="M290 -10q-68 0 -120 24t-82.5 68t-34.5 103h90q6 -53 46 -84t101 -31q68 0 107.5 36t39.5 94q0 59 -40 94.5t-107 35.5h-90v82h89q61 0 98 38t37 93q0 56 -36.5 86.5t-98.5 30.5q-61 0 -98 -34.5t-37 -90.5h-90q0 62 28 108t78.5 71.5t118.5 25.5q105 0 167 -48t62 -137
q0 -50 -21.5 -89.5t-61 -61.5t-93.5 -21v15q58 1 100.5 -22.5t66 -67t23.5 -102.5q0 -63 -29.5 -111.5t-84 -76.5t-128.5 -28z" />
    <glyph glyph-name="uni0418" unicode="&#x418;" 
d="M90 0v730h87v-410q0 -36 -1.5 -76.5t-3.5 -77t-4 -61.5l222 625h120v-730h-87v410q0 37 1.5 77.5t4 77t4.5 60.5l-223 -625h-120z" />
    <glyph glyph-name="uni0419" unicode="&#x419;" 
d="M90 0v730h87v-410q0 -36 -1.5 -76.5t-3.5 -77t-4 -61.5l222 625h120v-730h-87v410q0 37 1.5 77.5t4 77t4.5 60.5l-223 -625h-120zM300 805q-72 0 -116 40t-44 105h71q0 -39 24 -63t64 -24q41 0 65.5 24t24.5 63h71q0 -65 -44 -105t-116 -40z" />
    <glyph glyph-name="uni041A" unicode="&#x41a;" 
d="M92 0v730h90v-313h108l162 313h98l-181 -351l191 -379h-103l-170 338h-105v-338h-90z" />
    <glyph glyph-name="uni041B" unicode="&#x41b;" 
d="M20 -5v84h18q44 0 63.5 39.5t20.5 135.5l8 476h376v-730h-90v648h-197l-7 -394q-2 -134 -42.5 -196.5t-126.5 -62.5h-23z" />
    <glyph glyph-name="uni041C" unicode="&#x41c;" 
d="M76 0v730h118l76 -236q11 -32 20 -63.5t13 -48.5q5 17 13 48.5t18 64.5l72 235h118v-730h-88v265q0 44 3 100t8 114.5t10.5 112t9.5 93.5l-118 -365h-95l-119 365q5 -39 10 -90.5t9 -109t7 -114.5t3 -106v-265h-88z" />
    <glyph glyph-name="uni041D" unicode="&#x41d;" 
d="M93 0v730h90v-312h234v312h90v-730h-90v336h-234v-336h-90z" />
    <glyph glyph-name="uni041E" unicode="&#x41e;" 
d="M300 -10q-66 0 -113.5 25t-73 72.5t-25.5 112.5v330q0 66 25.5 113t73 72t113.5 25t113.5 -25t73 -72t25.5 -112v-331q0 -65 -25.5 -112.5t-73 -72.5t-113.5 -25zM300 71q59 0 90.5 33.5t31.5 95.5v330q0 62 -31.5 95.5t-90.5 33.5q-58 0 -90 -33.5t-32 -95.5v-330
q0 -62 32 -95.5t90 -33.5z" />
    <glyph glyph-name="uni041F" unicode="&#x41f;" 
d="M94 0v730h412v-730h-90v648h-232v-648h-90z" />
    <glyph glyph-name="uni0420" unicode="&#x420;" 
d="M92 0v730h235q68 0 118 -26.5t77.5 -74.5t27.5 -114q0 -65 -27.5 -113.5t-77.5 -75t-118 -26.5h-145v-300h-90zM182 381h145q59 0 94.5 36.5t35.5 97.5q0 62 -35.5 98t-94.5 36h-145v-268z" />
    <glyph glyph-name="uni0421" unicode="&#x421;" 
d="M304 -10q-66 0 -114.5 25t-75 72.5t-26.5 112.5v330q0 66 26.5 113t75 72t114.5 25t114 -25.5t74 -72.5t26 -112h-90q0 62 -32.5 95.5t-91.5 33.5t-92.5 -33t-33.5 -95v-331q0 -62 33.5 -95.5t92.5 -33.5t91.5 33.5t32.5 95.5h90q0 -64 -26 -111.5t-74 -73t-114 -25.5z
" />
    <glyph glyph-name="uni0422" unicode="&#x422;" 
d="M255 0v649h-200v82h490v-82h-200v-649h-90z" />
    <glyph glyph-name="uni0423" unicode="&#x423;" 
d="M191 0l74 189l-215 541h98l131 -357q13 -34 21 -64.5t10 -45.5q2 15 9 45.5t18 64.5l115 357h98l-263 -730h-96z" />
    <glyph glyph-name="uni0424" unicode="&#x424;" 
d="M258 -25v70q-61 0 -107 26t-71.5 72.5t-25.5 109.5v234q0 65 25 112.5t71 74t108 26.5v70h84v-70q62 0 108 -26.5t71 -74t25 -112.5v-234q0 -63 -25.5 -109.5t-71 -72.5t-107.5 -26v-70h-84zM258 121v503q-37 0 -64 -16.5t-41.5 -47t-14.5 -73.5v-234q0 -41 14.5 -70.5
t41.5 -45.5t64 -16zM342 121q38 0 64.5 16t41 45.5t14.5 70.5v234q0 43 -14.5 73.5t-41 47t-64.5 16.5v-503z" />
    <glyph glyph-name="uni0425" unicode="&#x425;" 
d="M40 0l210 370l-199 360h104l113 -216q9 -17 18.5 -36.5t15.5 -30.5q5 11 14.5 30.5t18.5 36.5l115 216h99l-199 -354l210 -376h-103l-125 232q-9 17 -18.5 36.5t-14.5 31.5q-5 -12 -14.5 -31t-18.5 -36l-126 -233h-100z" />
    <glyph glyph-name="uni0426" unicode="&#x426;" 
d="M485 -140v140h-391v730h90v-650h216v650h90v-650h75v-220h-80z" />
    <glyph glyph-name="uni0427" unicode="&#x427;" 
d="M415 0v281q-13 -3 -48.5 -6.5t-86.5 -3.5q-94 0 -149.5 57t-55.5 153v249h90v-249q0 -59 35.5 -94.5t94.5 -35.5q48 0 79 3.5t41 6.5v369h90v-730h-90z" />
    <glyph glyph-name="uni0428" unicode="&#x428;" 
d="M66 0l-2 730h84v-662h117v662h72v-662h116v662h83v-730h-470z" />
    <glyph glyph-name="uni0429" unicode="&#x429;" 
d="M495 -140v140h-431v730h81v-654h116v654h70v-654h116v654h81v-654h47v-216h-80z" />
    <glyph glyph-name="uni042A" unicode="&#x42a;" 
d="M135 0v648h-140v82h230v-300h105q66 0 115.5 -27t77 -75t27.5 -113q0 -64 -27.5 -112.5t-77 -75.5t-115.5 -27h-195zM225 82h100q59 0 95.5 36.5t36.5 96.5t-36.5 96.5t-95.5 36.5h-100v-266z" />
    <glyph glyph-name="uni042B" unicode="&#x42b;" 
d="M65 0v730h84v-300h41q91 0 143.5 -51t52.5 -139v-51q0 -88 -52 -138.5t-144 -50.5h-125zM149 79h41q53 0 81.5 29.5t28.5 81.5v50q0 53 -28.5 82t-81.5 29h-41v-272zM451 0v730h84v-730h-84z" />
    <glyph glyph-name="uni042C" unicode="&#x42c;" 
d="M94 0v730h90v-300h146q66 0 115.5 -27t77 -75t27.5 -113q0 -64 -27.5 -112.5t-77 -75.5t-115.5 -27h-236zM184 82h141q59 0 95.5 36.5t36.5 96.5t-36.5 96.5t-95.5 36.5h-141v-266z" />
    <glyph glyph-name="uni042D" unicode="&#x42d;" 
d="M296 -10q-65 0 -113 25.5t-73.5 73t-25.5 111.5h90q0 -62 32 -96t90 -34q59 0 91.5 34t32.5 96v127h-225v82h225v122q0 62 -32.5 95.5t-91.5 33.5q-58 0 -90 -34t-32 -96h-90q0 65 25.5 112t73.5 72.5t113 25.5q67 0 114.5 -25t73.5 -72t26 -113v-330q0 -65 -26 -112.5
t-73.5 -72.5t-114.5 -25z" />
    <glyph glyph-name="uni042E" unicode="&#x42e;" 
d="M389 -10q-77 0 -122 51t-45 139v155h-79v-335h-83v730h83v-315h79v135q0 89 44.5 139.5t122.5 50.5q80 0 125.5 -51t45.5 -139v-370q0 -88 -45.5 -139t-125.5 -51zM389 68q43 0 65.5 29t22.5 83v370q0 54 -22.5 83t-65.5 29t-65.5 -29t-22.5 -83v-370q0 -54 22.5 -83
t65.5 -29z" />
    <glyph glyph-name="uni042F" unicode="&#x42f;" 
d="M56 0l150 320q-66 20 -104 73t-38 127q0 63 27 110t76 73.5t114 26.5h224v-730h-90v310h-116l-139 -310h-104zM281 390h134v260h-134q-55 0 -89.5 -35.5t-34.5 -94.5q0 -58 34 -94t90 -36z" />
    <glyph glyph-name="uni0430" unicode="&#x430;" 
d="M252 -10q-87 0 -137 44.5t-50 120.5q0 77 50 121t135 44h170v55q0 51 -30.5 78.5t-86.5 27.5q-49 0 -82 -20.5t-38 -55.5h-90q9 71 67 113t145 42q95 0 150 -49t55 -133v-378h-88v105h-15l15 15q0 -60 -46.5 -95t-123.5 -35zM274 61q64 0 105 32t41 82v78h-168
q-45 0 -71 -25t-26 -68q0 -46 31.5 -72.5t87.5 -26.5z" />
    <glyph glyph-name="uni0431" unicode="&#x431;" 
d="M300 -10q-97 0 -153.5 57.5t-56.5 157.5v250q0 132 66 203.5t189 71.5h140v-90h-140q-81 0 -123 -47.5t-42 -137.5v-65h14l-14 -20q1 59 40 92t106 33q87 0 135.5 -56t48.5 -154v-80q0 -67 -25 -115t-72 -74t-113 -26zM300 70q58 0 89 35t31 100v80q0 65 -31 100t-89 35
t-89 -34.5t-31 -100.5v-80q0 -65 31 -100t89 -35z" />
    <glyph glyph-name="uni0432" unicode="&#x432;" 
d="M94 0v550h238q86 0 133 -38.5t47 -107.5q0 -57 -39 -91.5t-103 -34.5v8q70 0 112.5 -35t42.5 -94q0 -74 -50 -115.5t-140 -41.5h-241zM182 79h153q48 0 74.5 21t26.5 59q0 39 -26.5 60t-74.5 21h-153v-161zM182 318h150q42 0 66.5 20t24.5 56t-24 56.5t-67 20.5h-150
v-153z" />
    <glyph glyph-name="uni0433" unicode="&#x433;" 
d="M130 0v550h395v-82h-305v-468h-90z" />
    <glyph glyph-name="uni0434" unicode="&#x434;" 
d="M30 -140v217h45q17 17 35.5 67t19.5 127l6 279h359v-473h70v-217h-80v140h-375v-140h-80zM170 77h235v393h-184l-4 -201q-1 -79 -17 -128t-30 -64z" />
    <glyph glyph-name="uni0435" unicode="&#x435;" 
d="M300 -10q-65 0 -113.5 26t-75 73.5t-26.5 110.5v150q0 64 26.5 111t75 73t113.5 26t113.5 -26t75 -73t26.5 -111v-97h-342v-53q0 -65 33 -99.5t94 -34.5q52 0 84 18.5t39 55.5h90q-9 -69 -67.5 -109.5t-145.5 -40.5zM427 313v37q0 65 -32.5 100t-94.5 35q-61 0 -94 -35
t-33 -100v-29h261z" />
    <glyph glyph-name="uni0436" unicode="&#x436;" 
d="M18 0l120 282l-112 268h87l96 -240h53v240h76v-240h51l99 240h86l-112 -265l120 -285h-90l-100 250h-54v-250h-76v250h-54l-101 -250h-89z" />
    <glyph glyph-name="uni0437" unicode="&#x437;" 
d="M274 -7q-87 0 -142.5 37t-66.5 100h95q7 -25 37.5 -41t76.5 -16h47q49 0 76.5 23t27.5 60q0 40 -26.5 63t-77.5 23h-121v78h118q46 0 70 22t24 58q0 25 -10.5 42t-31.5 26t-51 9h-50q-40 0 -69 -18t-35 -44h-95q10 62 65 102t134 40h50q59 0 101 -18.5t64.5 -52.5
t22.5 -81q0 -49 -32 -80.5t-90 -35.5v-4q71 -5 103 -38t32 -95q0 -73 -54 -116t-145 -43h-47z" />
    <glyph glyph-name="uni0438" unicode="&#x438;" 
d="M94 0v550h86v-300q0 -29 -1.5 -61t-4 -60.5t-5.5 -48.5l222 470h115v-550h-86v300q0 29 1.5 61t4.5 61.5t5 48.5l-222 -471h-115z" />
    <glyph glyph-name="uni0439" unicode="&#x439;" 
d="M94 0v550h86v-300q0 -29 -1.5 -61t-4 -60.5t-5.5 -48.5l222 470h115v-550h-86v300q0 29 1.5 61t4.5 61.5t5 48.5l-222 -471h-115zM304 640q-72 0 -116 40t-44 105h71q0 -39 24 -63t64 -24q41 0 65.5 24t24.5 63h71q0 -65 -44 -105t-116 -40z" />
    <glyph glyph-name="uni043A" unicode="&#x43a;" 
d="M97 0v550h90v-227h94l160 227h103l-185 -262l188 -288h-105l-160 245h-95v-245h-90z" />
    <glyph glyph-name="uni043B" unicode="&#x43b;" 
d="M25 -7v84h18q46 0 64.5 36t19.5 129l6 308h373v-550h-90v468h-194l-5 -230q-2 -87 -19.5 -141t-54 -79t-95.5 -25h-23z" />
    <glyph glyph-name="uni043C" unicode="&#x43c;" 
d="M76 0v550h122l72 -211q11 -32 20 -63.5t13 -48.5q4 17 12.5 48.5t18.5 64.5l68 210h122v-550h-87v85q0 45 1 98t2.5 107t3.5 102.5t3 85.5l-98 -313h-95l-99 311q2 -45 3.5 -112t3 -140t1.5 -139v-85h-87z" />
    <glyph glyph-name="uni043D" unicode="&#x43d;" 
d="M94 0v550h90v-229h232v229h90v-550h-90v239h-232v-239h-90z" />
    <glyph glyph-name="uni043E" unicode="&#x43e;" 
d="M300 -8q-66 0 -114 25t-74.5 72.5t-26.5 112.5v146q0 66 26.5 113t74.5 72t114 25t114 -25t74.5 -72t26.5 -112v-147q0 -65 -26.5 -112.5t-74.5 -72.5t-114 -25zM300 72q59 0 92 33t33 97v146q0 64 -33 97t-92 33q-58 0 -91.5 -33t-33.5 -97v-146q0 -64 33.5 -97
t91.5 -33z" />
    <glyph glyph-name="uni043F" unicode="&#x43f;" 
d="M94 0v550h412v-550h-90v468h-232v-468h-90z" />
    <glyph glyph-name="uni0440" unicode="&#x440;" 
d="M92 -180v730h90v-105h18l-18 -21q0 63 41.5 99.5t109.5 36.5q83 0 132.5 -54.5t49.5 -149.5v-161q0 -63 -22.5 -109t-63 -71t-96.5 -25q-67 0 -109 37t-42 99l18 -21h-20l2 -125v-160h-90zM303 68q57 0 89.5 34t32.5 98v150q0 64 -32.5 98t-89.5 34q-55 0 -88 -35
t-33 -97v-150q0 -62 33 -97t88 -35z" />
    <glyph glyph-name="uni0441" unicode="&#x441;" 
d="M302 -10q-66 0 -115.5 25t-76.5 72.5t-27 112.5v150q0 66 27 113t76.5 72t115.5 25q95 0 153 -51t61 -139h-90q-3 53 -35.5 81.5t-88.5 28.5q-59 0 -94 -33.5t-35 -95.5v-151q0 -62 35 -96t94 -34q56 0 88.5 29t35.5 81h90q-3 -88 -61 -139t-153 -51z" />
    <glyph glyph-name="uni0442" unicode="&#x442;" 
d="M255 0v471h-200v79h490v-79h-200v-471h-90z" />
    <glyph glyph-name="uni0443" unicode="&#x443;" 
d="M178 -180l81 214l-204 516h100l128 -340q7 -17 13 -40.5t10 -39.5q4 16 10 39.5t12 40.5l120 340h97l-271 -730h-96z" />
    <glyph glyph-name="uni0444" unicode="&#x444;" 
d="M260 -180v180q-96 0 -151 54t-55 148v148q0 93 55.5 146.5t150.5 53.5v180h80v-180q96 0 151 -53.5t55 -146.5v-148q0 -94 -55 -148t-151 -54v-180h-80zM262 71v408q-58 0 -91 -34t-33 -95v-148q0 -61 33 -96t91 -35zM338 71q59 0 91.5 35t32.5 96v148q0 61 -32.5 95
t-91.5 34v-408z" />
    <glyph glyph-name="uni0445" unicode="&#x445;" 
d="M50 0l195 283l-183 267h106l109 -170q7 -11 13.5 -24l10.5 -21q3 8 9.5 21t13.5 24l110 170h105l-183 -268l194 -282h-106l-118 180q-7 11 -13.5 25.5t-11.5 23.5q-4 -9 -11.5 -23.5t-15.5 -25.5l-119 -180h-105z" />
    <glyph glyph-name="uni0446" unicode="&#x446;" 
d="M485 -140v140h-391v550h90v-470h216v470h90v-470h75v-220h-80z" />
    <glyph glyph-name="uni0447" unicode="&#x447;" 
d="M410 0v200q-16 -4 -48.5 -7.5t-68.5 -3.5q-102 -1 -158.5 49.5t-56.5 141.5v170h90v-170q0 -51 34.5 -80.5t95.5 -29.5q42 0 71.5 3.5t40.5 6.5v270h90v-550h-90z" />
    <glyph glyph-name="uni0448" unicode="&#x448;" 
d="M66 0l-2 550h84v-482h117v482h72v-482h116v482h83v-550h-470z" />
    <glyph glyph-name="uni0449" unicode="&#x449;" 
d="M495 -140v140h-431v550h81v-474h116v474h70v-474h116v474h81v-474h47v-216h-80z" />
    <glyph glyph-name="uni044A" unicode="&#x44a;" 
d="M140 0v470h-140v80h230v-202h120q93 0 146.5 -46.5t53.5 -127.5q0 -80 -54 -127t-146 -47h-210zM230 82h120q52 0 79.5 23.5t27.5 68.5t-27.5 68.5t-79.5 23.5h-120v-184z" />
    <glyph glyph-name="uni044B" unicode="&#x44b;" 
d="M65 0v550h84v-202h45q89 0 140.5 -46.5t51.5 -127.5t-51.5 -127.5t-140.5 -46.5h-129zM149 72h45q53 0 82.5 27t29.5 75t-29.5 75t-82.5 27h-45v-204zM451 0v550h84v-550h-84z" />
    <glyph glyph-name="uni044C" unicode="&#x44c;" 
d="M98 0v550h90v-202h162q93 0 146.5 -46.5t53.5 -127.5q0 -80 -54 -127t-146 -47h-252zM188 82h162q52 0 79.5 23.5t27.5 68.5t-27.5 68.5t-79.5 23.5h-162v-184z" />
    <glyph glyph-name="uni044D" unicode="&#x44d;" 
d="M296 -10q-95 0 -152 51t-60 139h90q3 -52 35 -81t87 -29q59 0 91.5 34t32.5 96v40h-195v80h195v31q0 62 -32.5 95.5t-91.5 33.5q-55 0 -87 -28.5t-35 -81.5h-90q3 88 60 139t152 51q67 0 114.5 -25t73.5 -72t26 -113v-150q0 -65 -26 -112.5t-73.5 -72.5t-114.5 -25z" />
    <glyph glyph-name="uni044E" unicode="&#x44e;" 
d="M386 -10q-69 0 -111 47t-42 123v83h-88v-243h-83v550h83v-235h88v75q0 77 41.5 123.5t111.5 46.5q74 0 119 -46.5t45 -123.5v-230q0 -76 -45 -123t-119 -47zM386 60q38 0 59.5 26.5t21.5 73.5v230q0 47 -21.5 73.5t-59.5 26.5q-37 0 -58 -26.5t-21 -73.5v-230
q0 -47 21 -73.5t58 -26.5z" />
    <glyph glyph-name="uni044F" unicode="&#x44f;" 
d="M60 0l141 212q-63 15 -97.5 58t-34.5 107q0 81 53.5 127t146.5 46h237v-550h-90v205h-121l-130 -205h-105zM269 285h147v185h-147q-50 0 -79 -24.5t-29 -68.5q0 -43 29 -67.5t79 -24.5z" />
    <glyph glyph-name="uni0451" unicode="&#x451;" 
d="M411 649q-29 0 -46.5 17t-17.5 46q0 30 17.5 47.5t46.5 17.5t46.5 -17.5t17.5 -47.5q0 -29 -17.5 -46t-46.5 -17zM189 649q-29 0 -46.5 17t-17.5 46q0 30 17.5 47.5t46.5 17.5t46.5 -17.5t17.5 -47.5q0 -29 -17.5 -46t-46.5 -17zM300 -10q-65 0 -113.5 26t-75 73.5
t-26.5 110.5v150q0 64 26.5 111t75 73t113.5 26t113.5 -26t75 -73t26.5 -111v-97h-342v-53q0 -65 33 -99.5t94 -34.5q52 0 84 18.5t39 55.5h90q-9 -69 -67.5 -109.5t-145.5 -40.5zM427 313v37q0 65 -32.5 100t-94.5 35q-61 0 -94 -35t-33 -100v-29h261z" />
    <glyph glyph-name="uni0452" unicode="&#x452;" 
d="M250 -180v83h37q62 0 96.5 33.5t34.5 94.5v269q0 59 -30.5 91.5t-84.5 32.5q-56 0 -87.5 -35t-31.5 -99v-290h-90v570h-94v75h94v85h90v-85h166v-75h-166v-80v-105h19l-19 -21q0 65 38 100.5t107 35.5q83 0 131 -51t48 -139v-279q0 -97 -60 -154t-161 -57h-37z" />
    <glyph glyph-name="uni0453" unicode="&#x453;" 
d="M130 0v550h395v-82h-305v-468h-90zM272 645l106 140h97l-111 -140h-92z" />
    <glyph glyph-name="uni0454" unicode="&#x454;" 
d="M304 -10q-66 0 -114 25t-74 72.5t-26 112.5v150q0 66 26 113t74 72t114 25q95 0 152 -51t60 -139h-90q-3 53 -34.5 81.5t-87.5 28.5q-59 0 -91.5 -33.5t-32.5 -95.5v-31h195v-80h-195v-40q0 -62 32.5 -96t91.5 -34q56 0 87.5 29t34.5 81h90q-3 -88 -60 -139t-152 -51z
" />
    <glyph glyph-name="uni0455" unicode="&#x455;" 
d="M283 -8q-56 0 -97.5 17.5t-66 49.5t-29.5 76h90q6 -29 32.5 -46t70.5 -17h42q53 0 79 21.5t26 57.5q0 35 -23.5 55.5t-69.5 27.5l-74 12q-81 14 -120.5 50.5t-39.5 106.5q0 74 47 114.5t141 40.5h38q79 0 127 -37t58 -100h-90q-6 26 -30 41.5t-65 15.5h-38
q-51 0 -74.5 -19t-23.5 -57q0 -34 20 -50t63 -23l74 -12q89 -14 129.5 -52t40.5 -110q0 -76 -48.5 -119.5t-146.5 -43.5h-42z" />
    <glyph glyph-name="uni0456" unicode="&#x456;" 
d="M85 0v82h195v386h-170v82h260v-468h185v-82h-470zM315 649q-33 0 -52 17t-19 46q0 30 19 47.5t52 17.5t52 -17.5t19 -47.5q0 -29 -19 -46t-52 -17z" />
    <glyph glyph-name="uni0457" unicode="&#x457;" 
d="M85 0v82h195v386h-170v82h260v-468h185v-82h-470zM426 649q-29 0 -46.5 17t-17.5 46q0 30 17.5 47.5t46.5 17.5t46.5 -17.5t17.5 -47.5q0 -29 -17.5 -46t-46.5 -17zM204 649q-29 0 -46.5 17t-17.5 46q0 30 17.5 47.5t46.5 17.5t46.5 -17.5t17.5 -47.5q0 -29 -17.5 -46
t-46.5 -17z" />
    <glyph glyph-name="uni0458" unicode="&#x458;" 
d="M85 -180v83h129q62 0 96.5 33.5t34.5 94.5v437h-230v82h320v-519q0 -97 -60 -154t-161 -57h-129zM385 649q-33 0 -52 17t-19 46q0 30 19 47.5t52 17.5t52 -17.5t19 -47.5q0 -29 -19 -46t-52 -17z" />
    <glyph glyph-name="uni0459" unicode="&#x459;" 
d="M5 -5v85h18q25 0 40 31t16 83l4 356h282v-200h60q72 0 116 -42.5t44 -111.5v-42q0 -69 -44 -111.5t-116 -42.5h-140v473h-123l-3 -279q-1 -91 -37.5 -145t-101.5 -54h-15zM365 74h60q36 0 58 22t22 58v42q0 36 -22 58t-58 22h-60v-202z" />
    <glyph glyph-name="uni045A" unicode="&#x45a;" 
d="M64 0v550h83v-200h137v200h73v-200h61q72 0 116 -42.5t44 -112.5v-40q0 -70 -44 -112.5t-116 -42.5h-134v275h-137v-275h-83zM357 75h61q36 0 56.5 22t20.5 58v40q0 36 -20.5 58t-56.5 22h-61v-200z" />
    <glyph glyph-name="uni045B" unicode="&#x45b;" 
d="M0 570v75h92v85h90v-85h168v-75h-168v-80v-105h1q7 55 45 85t101 30q83 0 132 -51t49 -139v-310h-90v300q0 59 -31.5 91.5t-85.5 32.5q-56 0 -88.5 -35t-32.5 -99v-290h-90v570h-92z" />
    <glyph glyph-name="uni045C" unicode="&#x45c;" 
d="M97 0v550h90v-227h94l160 227h103l-185 -262l188 -288h-105l-160 245h-95v-245h-90zM242 645l106 140h97l-111 -140h-92z" />
    <glyph glyph-name="uni045E" unicode="&#x45e;" 
d="M304 640q-72 0 -116 40t-44 105h71q0 -39 24 -63t64 -24q41 0 65.5 24t24.5 63h71q0 -65 -44 -105t-116 -40zM178 -180l81 214l-204 516h100l128 -340q7 -17 13 -40.5t10 -39.5q4 16 10 39.5t12 40.5l120 340h97l-271 -730h-96z" />
    <glyph glyph-name="uni045F" unicode="&#x45f;" 
d="M255 -125v125h-161v550h90v-468h232v468h90v-550h-161v-125h-90z" />
    <glyph glyph-name="uni0490" unicode="&#x490;" 
d="M110 0v730h340v95h85v-177h-335v-648h-90z" />
    <glyph glyph-name="uni0491" unicode="&#x491;" 
d="M130 0v550h310v105h85v-187h-305v-468h-90z" />
    <glyph glyph-name="uni04AE" unicode="&#x4ae;" 
d="M255 0v273l-220 457h93l145 -300q12 -25 19 -42.5t9 -25.5q2 8 9.5 25.5t19.5 42.5l142 300h93l-220 -457v-273h-90z" />
    <glyph glyph-name="uni04AF" unicode="&#x4af;" 
d="M255 -180v180l-195 550h92l120 -365q8 -24 13.5 -44.5t9.5 -36t5.5 -24.5l1.5 -9l2 9t5.5 24.5t9.5 36t13 44.5l117 365h91l-195 -550v-180h-90z" />
    <glyph glyph-name="uni04E8" unicode="&#x4e8;" 
d="M300 -10q-98 0 -154 56.5t-56 154.5v329q0 98 56 154t154 56t154 -56t56 -154v-329q0 -65 -25.5 -112.5t-72.5 -73t-112 -25.5zM300 69q59 0 90 34t31 98v133h-242v-133q0 -64 31.5 -98t89.5 -34zM179 414h242v116q0 64 -31 97.5t-90 33.5t-90 -33.5t-31 -97.5v-116z" />
    <glyph glyph-name="uni04E9" unicode="&#x4e9;" 
d="M300 -10q-64 0 -111.5 25.5t-73 73t-25.5 112.5v149q0 65 25.5 112t73 72.5t111.5 25.5t111 -26t73 -72.5t26 -110.5v-150q0 -64 -26 -111.5t-73 -73.5t-111 -26zM300 69q59 0 90.5 34t31.5 98v39h-244v-39q0 -64 32 -98t90 -34zM178 315h244v35q0 63 -31.5 97t-90.5 34
q-58 0 -90 -34t-32 -97v-35z" />
    <glyph glyph-name="Wgrave" unicode="&#x1e80;" 
d="M109 0l-84 730h86l55 -540q2 -22 4 -45.5t3.5 -44.5t1.5 -35q2 14 3.5 35t4 44.5t5.5 45.5l68 540h93l62 -540q3 -22 5.5 -45.5t5 -44.5t3.5 -35l2.5 35t4 44.5t4.5 45.5l57 540h82l-86 -730h-113l-62 550q-2 23 -4.5 45t-4.5 41t-3 31q-1 -12 -3.5 -31t-4.5 -41t-5 -45
l-67 -550h-113zM267 810l-115 140h100l110 -140h-95z" />
    <glyph glyph-name="wgrave" unicode="&#x1e81;" 
d="M123 0l-88 550h80l55 -390q3 -22 6.5 -47.5t5.5 -42.5q2 17 6.5 42.5t7.5 47.5l61 390h86l61 -390q3 -22 7.5 -47.5t6.5 -42.5q2 17 6.5 42.5t7.5 47.5l57 390h76l-92 -550h-99l-59 380q-4 28 -9 56t-7 44q-2 -16 -6 -44t-9 -56l-62 -380h-99zM267 645l-115 140h100
l110 -140h-95z" />
    <glyph glyph-name="Wacute" unicode="&#x1e82;" 
d="M109 0l-84 730h86l55 -540q2 -22 4 -45.5t3.5 -44.5t1.5 -35q2 14 3.5 35t4 44.5t5.5 45.5l68 540h93l62 -540q3 -22 5.5 -45.5t5 -44.5t3.5 -35l2.5 35t4 44.5t4.5 45.5l57 540h82l-86 -730h-113l-62 550q-2 23 -4.5 45t-4.5 41t-3 31q-1 -12 -3.5 -31t-4.5 -41t-5 -45
l-67 -550h-113zM242 810l106 140h97l-111 -140h-92z" />
    <glyph glyph-name="wacute" unicode="&#x1e83;" 
d="M123 0l-88 550h80l55 -390q3 -22 6.5 -47.5t5.5 -42.5q2 17 6.5 42.5t7.5 47.5l61 390h86l61 -390q3 -22 7.5 -47.5t6.5 -42.5q2 17 6.5 42.5t7.5 47.5l57 390h76l-92 -550h-99l-59 380q-4 28 -9 56t-7 44q-2 -16 -6 -44t-9 -56l-62 -380h-99zM242 645l106 140h97
l-111 -140h-92z" />
    <glyph glyph-name="Wdieresis" unicode="&#x1e84;" 
d="M109 0l-84 730h86l55 -540q2 -22 4 -45.5t3.5 -44.5t1.5 -35q2 14 3.5 35t4 44.5t5.5 45.5l68 540h93l62 -540q3 -22 5.5 -45.5t5 -44.5t3.5 -35l2.5 35t4 44.5t4.5 45.5l57 540h82l-86 -730h-113l-62 550q-2 23 -4.5 45t-4.5 41t-3 31q-1 -12 -3.5 -31t-4.5 -41t-5 -45
l-67 -550h-113zM411 817q-29 0 -46.5 17t-17.5 46q0 30 17.5 47.5t46.5 17.5t46.5 -17.5t17.5 -47.5q0 -29 -17.5 -46t-46.5 -17zM189 817q-29 0 -46.5 17t-17.5 46q0 30 17.5 47.5t46.5 17.5t46.5 -17.5t17.5 -47.5q0 -29 -17.5 -46t-46.5 -17z" />
    <glyph glyph-name="wdieresis" unicode="&#x1e85;" 
d="M123 0l-88 550h80l55 -390q3 -22 6.5 -47.5t5.5 -42.5q2 17 6.5 42.5t7.5 47.5l61 390h86l61 -390q3 -22 7.5 -47.5t6.5 -42.5q2 17 6.5 42.5t7.5 47.5l57 390h76l-92 -550h-99l-59 380q-4 28 -9 56t-7 44q-2 -16 -6 -44t-9 -56l-62 -380h-99zM411 649q-29 0 -46.5 17
t-17.5 46q0 30 17.5 47.5t46.5 17.5t46.5 -17.5t17.5 -47.5q0 -29 -17.5 -46t-46.5 -17zM189 649q-29 0 -46.5 17t-17.5 46q0 30 17.5 47.5t46.5 17.5t46.5 -17.5t17.5 -47.5q0 -29 -17.5 -46t-46.5 -17z" />
    <glyph glyph-name="uni1E9E" unicode="&#x1e9e;" 
d="M92 0v524q0 62 26 108.5t73.5 72t110.5 25.5h227v-88l-179 -242v23q57 1 100 -24.5t66.5 -72.5t23.5 -111t-27 -112.5t-75 -75.5t-113 -27h-67v82h57q60 0 95 36t35 97q0 60 -35 95t-95 35h-45v78l164 225h-132q-55 0 -87.5 -33t-32.5 -91v-524h-90z" />
    <glyph glyph-name="uni1EA0" unicode="&#x1ea0;" 
d="M50 0l190 730h121l189 -730h-91l-48 194h-221l-48 -194h-92zM208 270h184l-56 225q-16 64 -25 107t-11 56q-2 -13 -11 -56t-25 -106zM310 -213q-33 0 -52 17t-19 46q0 30 19 47.5t52 17.5t52 -17.5t19 -47.5q0 -29 -19 -46t-52 -17z" />
    <glyph glyph-name="uni1EA1" unicode="&#x1ea1;" 
d="M252 -10q-87 0 -137 44.5t-50 120.5q0 77 50 121t135 44h170v55q0 51 -30.5 78.5t-86.5 27.5q-49 0 -82 -20.5t-38 -55.5h-90q9 71 67 113t145 42q95 0 150 -49t55 -133v-378h-88v105h-15l15 15q0 -60 -46.5 -95t-123.5 -35zM274 61q64 0 105 32t41 82v78h-168
q-45 0 -71 -25t-26 -68q0 -46 31.5 -72.5t87.5 -26.5zM305 -213q-33 0 -52 17t-19 46q0 30 19 47.5t52 17.5t52 -17.5t19 -47.5q0 -29 -19 -46t-52 -17z" />
    <glyph glyph-name="uni1EA2" unicode="&#x1ea2;" 
d="M50 0l190 730h121l189 -730h-91l-48 194h-221l-48 -194h-92zM208 270h184l-56 225q-16 64 -25 107t-11 56q-2 -13 -11 -56t-25 -106zM276 815l50 63q14 19 14 32q0 20 -32 20h-80v65h105q38 0 61.5 -19.5t23.5 -54.5q0 -32 -17 -54l-40 -52h-85z" />
    <glyph glyph-name="uni1EA3" unicode="&#x1ea3;" 
d="M252 -10q-87 0 -137 44.5t-50 120.5q0 77 50 121t135 44h170v55q0 51 -30.5 78.5t-86.5 27.5q-49 0 -82 -20.5t-38 -55.5h-90q9 71 67 113t145 42q95 0 150 -49t55 -133v-378h-88v105h-15l15 15q0 -60 -46.5 -95t-123.5 -35zM274 61q64 0 105 32t41 82v78h-168
q-45 0 -71 -25t-26 -68q0 -46 31.5 -72.5t87.5 -26.5zM263 645l50 63q14 19 14 32q0 20 -32 20h-80v65h105q38 0 61.5 -19.5t23.5 -54.5q0 -32 -17 -54l-40 -52h-85z" />
    <glyph glyph-name="uni1EA4" unicode="&#x1ea4;" 
d="M408 900l105 120h102l-110 -120h-97zM120 780l138 140h84l139 -140h-101l-80 78l-81 -78h-99zM50 0l190 730h121l189 -730h-91l-48 194h-221l-48 -194h-92zM208 270h184l-56 225q-16 64 -25 107t-11 56q-2 -13 -11 -56t-25 -106z" />
    <glyph glyph-name="uni1EA5" unicode="&#x1ea5;" 
d="M252 -10q-87 0 -137 44.5t-50 120.5q0 77 50 121t135 44h170v55q0 51 -30.5 78.5t-86.5 27.5q-49 0 -82 -20.5t-38 -55.5h-90q9 71 67 113t145 42q95 0 150 -49t55 -133v-378h-88v105h-15l15 15q0 -60 -46.5 -95t-123.5 -35zM274 61q64 0 105 32t41 82v78h-168
q-45 0 -71 -25t-26 -68q0 -46 31.5 -72.5t87.5 -26.5zM410 760l115 140h100l-120 -140h-95zM120 645l138 140h84l139 -140h-101l-80 78l-81 -78h-99z" />
    <glyph glyph-name="uni1EA6" unicode="&#x1ea6;" 
d="M445 900l-120 120h100l115 -120h-95zM120 780l138 140h84l139 -140h-101l-80 78l-81 -78h-99zM50 0l190 730h121l189 -730h-91l-48 194h-221l-48 -194h-92zM208 270h184l-56 225q-16 64 -25 107t-11 56q-2 -13 -11 -56t-25 -106z" />
    <glyph glyph-name="uni1EA7" unicode="&#x1ea7;" 
d="M252 -10q-87 0 -137 44.5t-50 120.5q0 77 50 121t135 44h170v55q0 51 -30.5 78.5t-86.5 27.5q-49 0 -82 -20.5t-38 -55.5h-90q9 71 67 113t145 42q95 0 150 -49t55 -133v-378h-88v105h-15l15 15q0 -60 -46.5 -95t-123.5 -35zM274 61q64 0 105 32t41 82v78h-168
q-45 0 -71 -25t-26 -68q0 -46 31.5 -72.5t87.5 -26.5zM450 760l-130 140h100l125 -140h-95zM120 645l138 140h84l139 -140h-101l-80 78l-81 -78h-99z" />
    <glyph glyph-name="uni1EA8" unicode="&#x1ea8;" 
d="M420 880l48 47q8 8 8 19q0 16 -15 16h-66v58h85q32 0 51 -17t19 -45q0 -13 -4 -24.5t-12 -19.5l-36 -34h-78zM120 780l138 140h84l139 -140h-101l-80 78l-81 -78h-99zM50 0l190 730h121l189 -730h-91l-48 194h-221l-48 -194h-92zM208 270h184l-56 225q-16 64 -25 107
t-11 56q-2 -13 -11 -56t-25 -106z" />
    <glyph glyph-name="uni1EA9" unicode="&#x1ea9;" 
d="M252 -10q-87 0 -137 44.5t-50 120.5q0 77 50 121t135 44h170v55q0 51 -30.5 78.5t-86.5 27.5q-49 0 -82 -20.5t-38 -55.5h-90q9 71 67 113t145 42q95 0 150 -49t55 -133v-378h-88v105h-15l15 15q0 -60 -46.5 -95t-123.5 -35zM274 61q64 0 105 32t41 82v78h-168
q-45 0 -71 -25t-26 -68q0 -46 31.5 -72.5t87.5 -26.5zM423 760l45 61q9 14 9 24q0 12 -8.5 18.5t-23.5 6.5h-50v60h55q46 0 73 -20t27 -55q0 -11 -4 -21.5t-13 -23.5l-35 -50h-75zM120 645l138 140h84l139 -140h-101l-80 78l-81 -78h-99z" />
    <glyph glyph-name="uni1EAA" unicode="&#x1eaa;" 
d="M377 920q-31 0 -52 7t-36 16.5t-28.5 16.5t-30.5 7q-13 0 -21.5 -8t-8.5 -22v-7h-65v7q0 38 24.5 60.5t65.5 22.5q32 0 52.5 -7t35 -16.5t27.5 -16.5t30 -7q14 0 22 8.5t8 21.5v7h65v-7q0 -38 -23.5 -60.5t-64.5 -22.5zM120 780l116 110h128l116 -110h-101l-79 73
l-81 -73h-99zM50 0l190 730h121l189 -730h-91l-48 194h-221l-48 -194h-92zM208 270h184l-56 225q-16 64 -25 107t-11 56q-2 -13 -11 -56t-25 -106z" />
    <glyph glyph-name="uni1EAB" unicode="&#x1eab;" 
d="M252 -10q-87 0 -137 44.5t-50 120.5q0 77 50 121t135 44h170v55q0 51 -30.5 78.5t-86.5 27.5q-49 0 -82 -20.5t-38 -55.5h-90q9 71 67 113t145 42q95 0 150 -49t55 -133v-378h-88v105h-15l15 15q0 -60 -46.5 -95t-123.5 -35zM274 61q64 0 105 32t41 82v78h-168
q-45 0 -71 -25t-26 -68q0 -46 31.5 -72.5t87.5 -26.5zM366 812q-31 0 -49.5 9.5t-30.5 22t-23 22t-28 9.5q-14 0 -22 -7.5t-8 -22.5v-25h-65v20q0 40 26 64t68 24q32 0 50.5 -9.5t30 -22t22.5 -22t28 -9.5q30 0 30 30v25h65v-20q0 -40 -26 -64t-68 -24zM120 645l138 140h84
l139 -140h-101l-80 78l-81 -78h-99z" />
    <glyph glyph-name="uni1EAC" unicode="&#x1eac;" 
d="M119 810l139 140h83l140 -140h-99l-82 78l-80 -78h-101zM50 0l190 730h121l189 -730h-91l-48 194h-221l-48 -194h-92zM208 270h184l-56 225q-16 64 -25 107t-11 56q-2 -13 -11 -56t-25 -106zM310 -213q-33 0 -52 17t-19 46q0 30 19 47.5t52 17.5t52 -17.5t19 -47.5
q0 -29 -19 -46t-52 -17z" />
    <glyph glyph-name="uni1EAD" unicode="&#x1ead;" 
d="M124 645l139 140h83l140 -140h-99l-82 78l-80 -78h-101zM252 -10q-87 0 -137 44.5t-50 120.5q0 77 50 121t135 44h170v55q0 51 -30.5 78.5t-86.5 27.5q-49 0 -82 -20.5t-38 -55.5h-90q9 71 67 113t145 42q95 0 150 -49t55 -133v-378h-88v105h-15l15 15q0 -60 -46.5 -95
t-123.5 -35zM274 61q64 0 105 32t41 82v78h-168q-45 0 -71 -25t-26 -68q0 -46 31.5 -72.5t87.5 -26.5zM305 -213q-33 0 -52 17t-19 46q0 30 19 47.5t52 17.5t52 -17.5t19 -47.5q0 -29 -19 -46t-52 -17z" />
    <glyph glyph-name="uni1EAE" unicode="&#x1eae;" 
d="M237 900l105 120h96l-110 -120h-91zM275 780q-64 0 -102 35t-38 95h70q0 -32 19 -51t51 -19h49q33 0 52 19t19 51h70q0 -60 -38 -95t-103 -35h-49zM50 0l190 730h121l189 -730h-91l-48 194h-221l-48 -194h-92zM208 270h184l-56 225q-16 64 -25 107t-11 56q-2 -13 -11 -56
t-25 -106z" />
    <glyph glyph-name="uni1EAF" unicode="&#x1eaf;" 
d="M252 -10q-87 0 -137 44.5t-50 120.5q0 77 50 121t135 44h170v55q0 51 -30.5 78.5t-86.5 27.5q-49 0 -82 -20.5t-38 -55.5h-90q9 71 67 113t145 42q95 0 150 -49t55 -133v-378h-88v105h-15l15 15q0 -60 -46.5 -95t-123.5 -35zM274 61q64 0 105 32t41 82v78h-168
q-45 0 -71 -25t-26 -68q0 -46 31.5 -72.5t87.5 -26.5zM300 640q-76 0 -123 36t-47 94h70q0 -31 27.5 -50.5t72.5 -19.5t72.5 19.5t27.5 50.5h70q0 -58 -46.5 -94t-123.5 -36zM237 760l115 130h96l-120 -130h-91z" />
    <glyph glyph-name="uni1EB0" unicode="&#x1eb0;" 
d="M275 780q-64 0 -102 35t-38 95h70q0 -32 19 -51t51 -19h49q33 0 52 19t19 51h70q0 -60 -38 -95t-103 -35h-49zM272 900l-100 120h96l95 -120h-91zM50 0l190 730h121l189 -730h-91l-48 194h-221l-48 -194h-92zM208 270h184l-56 225q-16 64 -25 107t-11 56q-2 -13 -11 -56
t-25 -106z" />
    <glyph glyph-name="uni1EB1" unicode="&#x1eb1;" 
d="M252 -10q-87 0 -137 44.5t-50 120.5q0 77 50 121t135 44h170v55q0 51 -30.5 78.5t-86.5 27.5q-49 0 -82 -20.5t-38 -55.5h-90q9 71 67 113t145 42q95 0 150 -49t55 -133v-378h-88v105h-15l15 15q0 -60 -46.5 -95t-123.5 -35zM274 61q64 0 105 32t41 82v78h-168
q-45 0 -71 -25t-26 -68q0 -46 31.5 -72.5t87.5 -26.5zM300 640q-76 0 -123 36t-47 94h70q0 -31 27.5 -50.5t72.5 -19.5t72.5 19.5t27.5 50.5h70q0 -58 -46.5 -94t-123.5 -36zM272 760l-120 130h96l115 -130h-91z" />
    <glyph glyph-name="uni1EB2" unicode="&#x1eb2;" 
d="M254 880l47 56q7 8 7 16t-10 8h-73v60h97q26 0 40.5 -12.5t14.5 -35.5q0 -13 -4 -27t-12 -25l-32 -40h-75zM275 780q-64 0 -102 35t-38 95h70q0 -32 19 -51t51 -19h49q33 0 52 19t19 51h70q0 -60 -38 -95t-103 -35h-49zM50 0l190 730h121l189 -730h-91l-48 194h-221
l-48 -194h-92zM208 270h184l-56 225q-16 64 -25 107t-11 56q-2 -13 -11 -56t-25 -106z" />
    <glyph glyph-name="uni1EB3" unicode="&#x1eb3;" 
d="M252 -10q-87 0 -137 44.5t-50 120.5q0 77 50 121t135 44h170v55q0 51 -30.5 78.5t-86.5 27.5q-49 0 -82 -20.5t-38 -55.5h-90q9 71 67 113t145 42q95 0 150 -49t55 -133v-378h-88v105h-15l15 15q0 -60 -46.5 -95t-123.5 -35zM274 61q64 0 105 32t41 82v78h-168
q-45 0 -71 -25t-26 -68q0 -46 31.5 -72.5t87.5 -26.5zM300 640q-76 0 -123 36t-47 94h70q0 -31 27.5 -50.5t72.5 -19.5t72.5 19.5t27.5 50.5h70q0 -58 -46.5 -94t-123.5 -36zM253 760l45 61q9 12 9 25q0 11 -7 17.5t-20 6.5h-55v60h65q43 0 68.5 -19.5t25.5 -51.5
q0 -13 -4.5 -25.5t-12.5 -23.5l-35 -50h-79z" />
    <glyph glyph-name="uni1EB4" unicode="&#x1eb4;" 
d="M275 780q-64 0 -102 30t-38 90h70q0 -32 19 -46t51 -14h49q33 0 52 14t19 46h70q0 -60 -38 -90t-103 -30h-49zM377 920q-31 0 -52 7t-36 16.5t-28.5 16.5t-30.5 7q-13 0 -21.5 -8t-8.5 -22v-7h-65v7q0 38 24.5 60.5t65.5 22.5q32 0 52.5 -7t35 -16.5t27.5 -16.5t30 -7
q14 0 22 8.5t8 21.5v7h65v-7q0 -38 -23.5 -60.5t-64.5 -22.5zM50 0l190 730h121l189 -730h-91l-48 194h-221l-48 -194h-92zM208 270h184l-56 225q-16 64 -25 107t-11 56q-2 -13 -11 -56t-25 -106z" />
    <glyph glyph-name="uni1EB5" unicode="&#x1eb5;" 
d="M252 -10q-87 0 -137 44.5t-50 120.5q0 77 50 121t135 44h170v55q0 51 -30.5 78.5t-86.5 27.5q-49 0 -82 -20.5t-38 -55.5h-90q9 71 67 113t145 42q95 0 150 -49t55 -133v-378h-88v105h-15l15 15q0 -60 -46.5 -95t-123.5 -35zM274 61q64 0 105 32t41 82v78h-168
q-45 0 -71 -25t-26 -68q0 -46 31.5 -72.5t87.5 -26.5zM300 645q-72 0 -116 36t-44 94h65q0 -31 26 -51t68 -20q43 0 69.5 20t26.5 51h65q0 -58 -44 -94t-116 -36zM366 812q-31 0 -49.5 9.5t-30.5 22t-23 22t-28 9.5q-14 0 -22 -7.5t-8 -22.5v-25h-65v20q0 40 26 64t68 24
q32 0 50.5 -9.5t30 -22t22.5 -22t28 -9.5q30 0 30 30v25h65v-20q0 -40 -26 -64t-68 -24z" />
    <glyph glyph-name="uni1EB6" unicode="&#x1eb6;" 
d="M300 805q-72 0 -116 40t-44 105h71q0 -39 24 -63t64 -24q41 0 65.5 24t24.5 63h71q0 -65 -44 -105t-116 -40zM50 0l190 730h121l189 -730h-91l-48 194h-221l-48 -194h-92zM208 270h184l-56 225q-16 64 -25 107t-11 56q-2 -13 -11 -56t-25 -106zM310 -213q-33 0 -52 17
t-19 46q0 30 19 47.5t52 17.5t52 -17.5t19 -47.5q0 -29 -19 -46t-52 -17z" />
    <glyph glyph-name="uni1EB7" unicode="&#x1eb7;" 
d="M304 640q-72 0 -116 40t-44 105h71q0 -39 24 -63t64 -24q41 0 65.5 24t24.5 63h71q0 -65 -44 -105t-116 -40zM252 -10q-87 0 -137 44.5t-50 120.5q0 77 50 121t135 44h170v55q0 51 -30.5 78.5t-86.5 27.5q-49 0 -82 -20.5t-38 -55.5h-90q9 71 67 113t145 42q95 0 150 -49
t55 -133v-378h-88v105h-15l15 15q0 -60 -46.5 -95t-123.5 -35zM274 61q64 0 105 32t41 82v78h-168q-45 0 -71 -25t-26 -68q0 -46 31.5 -72.5t87.5 -26.5zM305 -213q-33 0 -52 17t-19 46q0 30 19 47.5t52 17.5t52 -17.5t19 -47.5q0 -29 -19 -46t-52 -17z" />
    <glyph glyph-name="uni1EB8" unicode="&#x1eb8;" 
d="M100 0v730h420v-82h-331v-226h296v-81h-296v-259h331v-82h-420zM320 -213q-33 0 -52 17t-19 46q0 30 19 47.5t52 17.5t52 -17.5t19 -47.5q0 -29 -19 -46t-52 -17z" />
    <glyph glyph-name="uni1EB9" unicode="&#x1eb9;" 
d="M300 -10q-65 0 -113.5 26t-75 73.5t-26.5 110.5v150q0 64 26.5 111t75 73t113.5 26t113.5 -26t75 -73t26.5 -111v-97h-342v-53q0 -65 33 -99.5t94 -34.5q52 0 84 18.5t39 55.5h90q-9 -69 -67.5 -109.5t-145.5 -40.5zM427 313v37q0 65 -32.5 100t-94.5 35q-61 0 -94 -35
t-33 -100v-29h261zM300 -213q-33 0 -52 17t-19 46q0 30 19 47.5t52 17.5t52 -17.5t19 -47.5q0 -29 -19 -46t-52 -17z" />
    <glyph glyph-name="uni1EBA" unicode="&#x1eba;" 
d="M100 0v730h420v-82h-331v-226h296v-81h-296v-259h331v-82h-420zM258 800l45 63q14 20 14 32q0 20 -32 20h-75v65h80q47 0 76 -20.5t29 -54.5q0 -28 -17 -53l-35 -52h-85z" />
    <glyph glyph-name="uni1EBB" unicode="&#x1ebb;" 
d="M300 -10q-65 0 -113.5 26t-75 73.5t-26.5 110.5v150q0 64 26.5 111t75 73t113.5 26t113.5 -26t75 -73t26.5 -111v-97h-342v-53q0 -65 33 -99.5t94 -34.5q52 0 84 18.5t39 55.5h90q-9 -69 -67.5 -109.5t-145.5 -40.5zM427 313v37q0 65 -32.5 100t-94.5 35q-61 0 -94 -35
t-33 -100v-29h261zM258 645l50 63q14 19 14 32q0 20 -32 20h-80v65h105q38 0 61.5 -19.5t23.5 -54.5q0 -32 -17 -54l-40 -52h-85z" />
    <glyph glyph-name="uni1EBC" unicode="&#x1ebc;" 
d="M100 0v730h420v-82h-331v-226h296v-81h-296v-259h331v-82h-420zM390 815q-30 0 -49 10.5t-32 24.5t-25 24.5t-29 10.5q-13 0 -21.5 -8.5t-8.5 -26.5v-30h-65v30q0 45 25 70t65 25q30 0 49 -10.5t32 -24.5t25 -24.5t29 -10.5q14 0 22 8.5t8 26.5v30h65v-30
q0 -45 -24.5 -70t-65.5 -25z" />
    <glyph glyph-name="uni1EBD" unicode="&#x1ebd;" 
d="M300 -10q-65 0 -113.5 26t-75 73.5t-26.5 110.5v150q0 64 26.5 111t75 73t113.5 26t113.5 -26t75 -73t26.5 -111v-97h-342v-53q0 -65 33 -99.5t94 -34.5q52 0 84 18.5t39 55.5h90q-9 -69 -67.5 -109.5t-145.5 -40.5zM427 313v37q0 65 -32.5 100t-94.5 35q-61 0 -94 -35
t-33 -100v-29h261zM370 650q-30 0 -49 10.5t-32 24.5t-25 24.5t-29 10.5q-13 0 -21.5 -8.5t-8.5 -26.5v-30h-65v30q0 45 25 70t65 25q30 0 49 -10.5t32 -24.5t25 -24.5t29 -10.5q14 0 22 8.5t8 26.5v30h65v-30q0 -45 -24.5 -70t-65.5 -25z" />
    <glyph glyph-name="uni1EBE" unicode="&#x1ebe;" 
d="M100 0v730h420v-82h-331v-226h296v-81h-296v-259h331v-82h-420zM408 900l105 120h102l-110 -120h-97zM120 780l138 140h84l139 -140h-101l-80 78l-81 -78h-99z" />
    <glyph glyph-name="uni1EBF" unicode="&#x1ebf;" 
d="M300 -10q-65 0 -113.5 26t-75 73.5t-26.5 110.5v150q0 64 26.5 111t75 73t113.5 26t113.5 -26t75 -73t26.5 -111v-97h-342v-53q0 -65 33 -99.5t94 -34.5q52 0 84 18.5t39 55.5h90q-9 -69 -67.5 -109.5t-145.5 -40.5zM427 313v37q0 65 -32.5 100t-94.5 35q-61 0 -94 -35
t-33 -100v-29h261zM410 760l115 140h100l-120 -140h-95zM120 645l138 140h84l139 -140h-101l-80 78l-81 -78h-99z" />
    <glyph glyph-name="uni1EC0" unicode="&#x1ec0;" 
d="M100 0v730h420v-82h-331v-226h296v-81h-296v-259h331v-82h-420zM445 900l-120 120h100l115 -120h-95zM120 780l138 140h84l139 -140h-101l-80 78l-81 -78h-99z" />
    <glyph glyph-name="uni1EC1" unicode="&#x1ec1;" 
d="M300 -10q-65 0 -113.5 26t-75 73.5t-26.5 110.5v150q0 64 26.5 111t75 73t113.5 26t113.5 -26t75 -73t26.5 -111v-97h-342v-53q0 -65 33 -99.5t94 -34.5q52 0 84 18.5t39 55.5h90q-9 -69 -67.5 -109.5t-145.5 -40.5zM427 313v37q0 65 -32.5 100t-94.5 35q-61 0 -94 -35
t-33 -100v-29h261zM450 760l-130 140h100l125 -140h-95zM120 645l138 140h84l139 -140h-101l-80 78l-81 -78h-99z" />
    <glyph glyph-name="uni1EC2" unicode="&#x1ec2;" 
d="M100 0v730h420v-82h-331v-226h296v-81h-296v-259h331v-82h-420zM420 880l48 47q8 8 8 19q0 16 -15 16h-66v58h85q32 0 51 -17t19 -45q0 -13 -4 -24.5t-12 -19.5l-36 -34h-78zM120 780l138 140h84l139 -140h-101l-80 78l-81 -78h-99z" />
    <glyph glyph-name="uni1EC3" unicode="&#x1ec3;" 
d="M300 -10q-65 0 -113.5 26t-75 73.5t-26.5 110.5v150q0 64 26.5 111t75 73t113.5 26t113.5 -26t75 -73t26.5 -111v-97h-342v-53q0 -65 33 -99.5t94 -34.5q52 0 84 18.5t39 55.5h90q-9 -69 -67.5 -109.5t-145.5 -40.5zM427 313v37q0 65 -32.5 100t-94.5 35q-61 0 -94 -35
t-33 -100v-29h261zM423 760l45 61q9 14 9 24q0 12 -8.5 18.5t-23.5 6.5h-50v60h55q46 0 73 -20t27 -55q0 -11 -4 -21.5t-13 -23.5l-35 -50h-75zM120 645l138 140h84l139 -140h-101l-80 78l-81 -78h-99z" />
    <glyph glyph-name="uni1EC4" unicode="&#x1ec4;" 
d="M100 0v730h420v-82h-331v-226h296v-81h-296v-259h331v-82h-420zM377 920q-31 0 -52 7t-36 16.5t-28.5 16.5t-30.5 7q-13 0 -21.5 -8t-8.5 -22v-7h-65v7q0 38 24.5 60.5t65.5 22.5q32 0 52.5 -7t35 -16.5t27.5 -16.5t30 -7q14 0 22 8.5t8 21.5v7h65v-7q0 -38 -23.5 -60.5
t-64.5 -22.5zM120 780l116 110h128l116 -110h-101l-79 73l-81 -73h-99z" />
    <glyph glyph-name="uni1EC5" unicode="&#x1ec5;" 
d="M300 -10q-65 0 -113.5 26t-75 73.5t-26.5 110.5v150q0 64 26.5 111t75 73t113.5 26t113.5 -26t75 -73t26.5 -111v-97h-342v-53q0 -65 33 -99.5t94 -34.5q52 0 84 18.5t39 55.5h90q-9 -69 -67.5 -109.5t-145.5 -40.5zM427 313v37q0 65 -32.5 100t-94.5 35q-61 0 -94 -35
t-33 -100v-29h261zM366 812q-31 0 -49.5 9.5t-30.5 22t-23 22t-28 9.5q-14 0 -22 -7.5t-8 -22.5v-25h-65v20q0 40 26 64t68 24q32 0 50.5 -9.5t30 -22t22.5 -22t28 -9.5q30 0 30 30v25h65v-20q0 -40 -26 -64t-68 -24zM120 645l138 140h84l139 -140h-101l-80 78l-81 -78h-99z
" />
    <glyph glyph-name="uni1EC6" unicode="&#x1ec6;" 
d="M119 810l139 140h83l140 -140h-99l-82 78l-80 -78h-101zM100 0v730h420v-82h-331v-226h296v-81h-296v-259h331v-82h-420zM320 -213q-33 0 -52 17t-19 46q0 30 19 47.5t52 17.5t52 -17.5t19 -47.5q0 -29 -19 -46t-52 -17z" />
    <glyph glyph-name="uni1EC7" unicode="&#x1ec7;" 
d="M123 645l139 140h83l140 -140h-99l-82 78l-80 -78h-101zM300 -10q-65 0 -113.5 26t-75 73.5t-26.5 110.5v150q0 64 26.5 111t75 73t113.5 26t113.5 -26t75 -73t26.5 -111v-97h-342v-53q0 -65 33 -99.5t94 -34.5q52 0 84 18.5t39 55.5h90q-9 -69 -67.5 -109.5
t-145.5 -40.5zM427 313v37q0 65 -32.5 100t-94.5 35q-61 0 -94 -35t-33 -100v-29h261zM300 -213q-33 0 -52 17t-19 46q0 30 19 47.5t52 17.5t52 -17.5t19 -47.5q0 -29 -19 -46t-52 -17z" />
    <glyph glyph-name="uni1EC8" unicode="&#x1ec8;" 
d="M105 0v82h149v566h-149v82h390v-82h-149v-566h149v-82h-390zM276 800l45 63q14 20 14 32q0 20 -32 20h-75v65h80q47 0 76 -20.5t29 -54.5q0 -28 -17 -53l-35 -52h-85z" />
    <glyph glyph-name="uni1EC9" unicode="&#x1ec9;" 
d="M85 0v82h195v386h-170v82h260v-468h185v-82h-470zM276 645l50 63q14 19 14 32q0 20 -32 20h-80v65h105q38 0 61.5 -19.5t23.5 -54.5q0 -32 -17 -54l-40 -52h-85z" />
    <glyph glyph-name="uni1ECA" unicode="&#x1eca;" 
d="M105 0v82h149v566h-149v82h390v-82h-149v-566h149v-82h-390zM300 -213q-33 0 -52 17t-19 46q0 30 19 47.5t52 17.5t52 -17.5t19 -47.5q0 -29 -19 -46t-52 -17z" />
    <glyph glyph-name="uni1ECB" unicode="&#x1ecb;" 
d="M85 0v82h195v386h-170v82h260v-468h185v-82h-470zM315 649q-33 0 -52 17t-19 46q0 30 19 47.5t52 17.5t52 -17.5t19 -47.5q0 -29 -19 -46t-52 -17zM315 -213q-33 0 -52 17t-19 46q0 30 19 47.5t52 17.5t52 -17.5t19 -47.5q0 -29 -19 -46t-52 -17z" />
    <glyph glyph-name="uni1ECC" unicode="&#x1ecc;" 
d="M300 -10q-66 0 -113.5 25t-73 72.5t-25.5 112.5v330q0 66 25.5 113t73 72t113.5 25t113.5 -25t73 -72t25.5 -112v-331q0 -65 -25.5 -112.5t-73 -72.5t-113.5 -25zM300 71q59 0 90.5 33.5t31.5 95.5v330q0 62 -31.5 95.5t-90.5 33.5q-58 0 -90 -33.5t-32 -95.5v-330
q0 -62 32 -95.5t90 -33.5zM310 -213q-33 0 -52 17t-19 46q0 30 19 47.5t52 17.5t52 -17.5t19 -47.5q0 -29 -19 -46t-52 -17z" />
    <glyph glyph-name="uni1ECD" unicode="&#x1ecd;" 
d="M300 -8q-66 0 -114 25t-74.5 72.5t-26.5 112.5v146q0 66 26.5 113t74.5 72t114 25t114 -25t74.5 -72t26.5 -112v-147q0 -65 -26.5 -112.5t-74.5 -72.5t-114 -25zM300 72q59 0 92 33t33 97v146q0 64 -33 97t-92 33q-58 0 -91.5 -33t-33.5 -97v-146q0 -64 33.5 -97
t91.5 -33zM310 -213q-33 0 -52 17t-19 46q0 30 19 47.5t52 17.5t52 -17.5t19 -47.5q0 -29 -19 -46t-52 -17z" />
    <glyph glyph-name="uni1ECE" unicode="&#x1ece;" 
d="M300 -10q-66 0 -113.5 25t-73 72.5t-25.5 112.5v330q0 66 25.5 113t73 72t113.5 25t113.5 -25t73 -72t25.5 -112v-331q0 -65 -25.5 -112.5t-73 -72.5t-113.5 -25zM300 71q59 0 90.5 33.5t31.5 95.5v330q0 62 -31.5 95.5t-90.5 33.5q-58 0 -90 -33.5t-32 -95.5v-330
q0 -62 32 -95.5t90 -33.5zM276 800l45 63q14 20 14 32q0 20 -32 20h-75v65h80q47 0 76 -20.5t29 -54.5q0 -28 -17 -53l-35 -52h-85z" />
    <glyph glyph-name="uni1ECF" unicode="&#x1ecf;" 
d="M300 -8q-66 0 -114 25t-74.5 72.5t-26.5 112.5v146q0 66 26.5 113t74.5 72t114 25t114 -25t74.5 -72t26.5 -112v-147q0 -65 -26.5 -112.5t-74.5 -72.5t-114 -25zM300 72q59 0 92 33t33 97v146q0 64 -33 97t-92 33q-58 0 -91.5 -33t-33.5 -97v-146q0 -64 33.5 -97
t91.5 -33zM258 645l50 63q14 19 14 32q0 20 -32 20h-80v65h105q38 0 61.5 -19.5t23.5 -54.5q0 -32 -17 -54l-40 -52h-85z" />
    <glyph glyph-name="uni1ED0" unicode="&#x1ed0;" 
d="M300 -10q-66 0 -113.5 25t-73 72.5t-25.5 112.5v330q0 66 25.5 113t73 72t113.5 25t113.5 -25t73 -72t25.5 -112v-331q0 -65 -25.5 -112.5t-73 -72.5t-113.5 -25zM300 71q59 0 90.5 33.5t31.5 95.5v330q0 62 -31.5 95.5t-90.5 33.5q-58 0 -90 -33.5t-32 -95.5v-330
q0 -62 32 -95.5t90 -33.5zM408 900l105 120h102l-110 -120h-97zM120 780l138 140h84l139 -140h-101l-80 78l-81 -78h-99z" />
    <glyph glyph-name="uni1ED1" unicode="&#x1ed1;" 
d="M300 -8q-66 0 -114 25t-74.5 72.5t-26.5 112.5v146q0 66 26.5 113t74.5 72t114 25t114 -25t74.5 -72t26.5 -112v-147q0 -65 -26.5 -112.5t-74.5 -72.5t-114 -25zM300 72q59 0 92 33t33 97v146q0 64 -33 97t-92 33q-58 0 -91.5 -33t-33.5 -97v-146q0 -64 33.5 -97
t91.5 -33zM410 760l115 140h100l-120 -140h-95zM120 645l138 140h84l139 -140h-101l-80 78l-81 -78h-99z" />
    <glyph glyph-name="uni1ED2" unicode="&#x1ed2;" 
d="M300 -10q-66 0 -113.5 25t-73 72.5t-25.5 112.5v330q0 66 25.5 113t73 72t113.5 25t113.5 -25t73 -72t25.5 -112v-331q0 -65 -25.5 -112.5t-73 -72.5t-113.5 -25zM300 71q59 0 90.5 33.5t31.5 95.5v330q0 62 -31.5 95.5t-90.5 33.5q-58 0 -90 -33.5t-32 -95.5v-330
q0 -62 32 -95.5t90 -33.5zM445 900l-120 120h100l115 -120h-95zM120 780l138 140h84l139 -140h-101l-80 78l-81 -78h-99z" />
    <glyph glyph-name="uni1ED3" unicode="&#x1ed3;" 
d="M300 -8q-66 0 -114 25t-74.5 72.5t-26.5 112.5v146q0 66 26.5 113t74.5 72t114 25t114 -25t74.5 -72t26.5 -112v-147q0 -65 -26.5 -112.5t-74.5 -72.5t-114 -25zM300 72q59 0 92 33t33 97v146q0 64 -33 97t-92 33q-58 0 -91.5 -33t-33.5 -97v-146q0 -64 33.5 -97
t91.5 -33zM450 760l-130 140h100l125 -140h-95zM120 645l138 140h84l139 -140h-101l-80 78l-81 -78h-99z" />
    <glyph glyph-name="uni1ED4" unicode="&#x1ed4;" 
d="M300 -10q-66 0 -113.5 25t-73 72.5t-25.5 112.5v330q0 66 25.5 113t73 72t113.5 25t113.5 -25t73 -72t25.5 -112v-331q0 -65 -25.5 -112.5t-73 -72.5t-113.5 -25zM300 71q59 0 90.5 33.5t31.5 95.5v330q0 62 -31.5 95.5t-90.5 33.5q-58 0 -90 -33.5t-32 -95.5v-330
q0 -62 32 -95.5t90 -33.5zM420 880l48 47q8 8 8 19q0 16 -15 16h-66v58h85q32 0 51 -17t19 -45q0 -13 -4 -24.5t-12 -19.5l-36 -34h-78zM120 780l138 140h84l139 -140h-101l-80 78l-81 -78h-99z" />
    <glyph glyph-name="uni1ED5" unicode="&#x1ed5;" 
d="M300 -8q-66 0 -114 25t-74.5 72.5t-26.5 112.5v146q0 66 26.5 113t74.5 72t114 25t114 -25t74.5 -72t26.5 -112v-147q0 -65 -26.5 -112.5t-74.5 -72.5t-114 -25zM300 72q59 0 92 33t33 97v146q0 64 -33 97t-92 33q-58 0 -91.5 -33t-33.5 -97v-146q0 -64 33.5 -97
t91.5 -33zM423 760l45 61q9 14 9 24q0 12 -8.5 18.5t-23.5 6.5h-50v60h55q46 0 73 -20t27 -55q0 -11 -4 -21.5t-13 -23.5l-35 -50h-75zM120 645l138 140h84l139 -140h-101l-80 78l-81 -78h-99z" />
    <glyph glyph-name="uni1ED6" unicode="&#x1ed6;" 
d="M300 -10q-66 0 -113.5 25t-73 72.5t-25.5 112.5v330q0 66 25.5 113t73 72t113.5 25t113.5 -25t73 -72t25.5 -112v-331q0 -65 -25.5 -112.5t-73 -72.5t-113.5 -25zM300 71q59 0 90.5 33.5t31.5 95.5v330q0 62 -31.5 95.5t-90.5 33.5q-58 0 -90 -33.5t-32 -95.5v-330
q0 -62 32 -95.5t90 -33.5zM377 920q-31 0 -52 7t-36 16.5t-28.5 16.5t-30.5 7q-13 0 -21.5 -8t-8.5 -22v-7h-65v7q0 38 24.5 60.5t65.5 22.5q32 0 52.5 -7t35 -16.5t27.5 -16.5t30 -7q14 0 22 8.5t8 21.5v7h65v-7q0 -38 -23.5 -60.5t-64.5 -22.5zM120 780l116 110h128
l116 -110h-101l-79 73l-81 -73h-99z" />
    <glyph glyph-name="uni1ED7" unicode="&#x1ed7;" 
d="M300 -8q-66 0 -114 25t-74.5 72.5t-26.5 112.5v146q0 66 26.5 113t74.5 72t114 25t114 -25t74.5 -72t26.5 -112v-147q0 -65 -26.5 -112.5t-74.5 -72.5t-114 -25zM300 72q59 0 92 33t33 97v146q0 64 -33 97t-92 33q-58 0 -91.5 -33t-33.5 -97v-146q0 -64 33.5 -97
t91.5 -33zM366 812q-31 0 -49.5 9.5t-30.5 22t-23 22t-28 9.5q-14 0 -22 -7.5t-8 -22.5v-25h-65v20q0 40 26 64t68 24q32 0 50.5 -9.5t30 -22t22.5 -22t28 -9.5q30 0 30 30v25h65v-20q0 -40 -26 -64t-68 -24zM120 645l138 140h84l139 -140h-101l-80 78l-81 -78h-99z" />
    <glyph glyph-name="uni1ED8" unicode="&#x1ed8;" 
d="M119 810l139 140h83l140 -140h-99l-82 78l-80 -78h-101zM300 -10q-66 0 -113.5 25t-73 72.5t-25.5 112.5v330q0 66 25.5 113t73 72t113.5 25t113.5 -25t73 -72t25.5 -112v-331q0 -65 -25.5 -112.5t-73 -72.5t-113.5 -25zM300 71q59 0 90.5 33.5t31.5 95.5v330
q0 62 -31.5 95.5t-90.5 33.5q-58 0 -90 -33.5t-32 -95.5v-330q0 -62 32 -95.5t90 -33.5zM300 -213q-33 0 -52 17t-19 46q0 30 19 47.5t52 17.5t52 -17.5t19 -47.5q0 -29 -19 -46t-52 -17z" />
    <glyph glyph-name="uni1ED9" unicode="&#x1ed9;" 
d="M119 645l139 140h83l140 -140h-99l-82 78l-80 -78h-101zM300 -8q-66 0 -114 25t-74.5 72.5t-26.5 112.5v146q0 66 26.5 113t74.5 72t114 25t114 -25t74.5 -72t26.5 -112v-147q0 -65 -26.5 -112.5t-74.5 -72.5t-114 -25zM300 72q59 0 92 33t33 97v146q0 64 -33 97t-92 33
q-58 0 -91.5 -33t-33.5 -97v-146q0 -64 33.5 -97t91.5 -33zM310 -213q-33 0 -52 17t-19 46q0 30 19 47.5t52 17.5t52 -17.5t19 -47.5q0 -29 -19 -46t-52 -17z" />
    <glyph glyph-name="uni1EDA" unicode="&#x1eda;" 
d="M400 635v65h20q16 0 25.5 9.5t9.5 25.5v75h75v-80q0 -43 -28.5 -69t-76.5 -26h-25zM300 -10q-66 0 -113.5 25t-73 72.5t-25.5 112.5v330q0 66 25.5 113t73 72t113.5 25t113.5 -25t73 -72t25.5 -112v-331q0 -65 -25.5 -112.5t-73 -72.5t-113.5 -25zM300 71q59 0 90.5 33.5
t31.5 95.5v330q0 62 -31.5 95.5t-90.5 33.5q-58 0 -90 -33.5t-32 -95.5v-330q0 -62 32 -95.5t90 -33.5zM232 810l106 140h97l-111 -140h-92z" />
    <glyph glyph-name="uni1EDB" unicode="&#x1edb;" 
d="M396 465v65h34q17 0 26 9t9 26v75h75v-80q0 -43 -29 -69t-76 -26h-39zM300 -8q-66 0 -114 25t-74.5 72.5t-26.5 112.5v146q0 66 26.5 113t74.5 72t114 25t114 -25t74.5 -72t26.5 -112v-147q0 -65 -26.5 -112.5t-74.5 -72.5t-114 -25zM300 72q59 0 92 33t33 97v146
q0 64 -33 97t-92 33q-58 0 -91.5 -33t-33.5 -97v-146q0 -64 33.5 -97t91.5 -33zM232 645l106 140h97l-111 -140h-92z" />
    <glyph glyph-name="uni1EDC" unicode="&#x1edc;" 
d="M400 635v65h20q16 0 25.5 9.5t9.5 25.5v75h75v-80q0 -43 -28.5 -69t-76.5 -26h-25zM300 -10q-66 0 -113.5 25t-73 72.5t-25.5 112.5v330q0 66 25.5 113t73 72t113.5 25t113.5 -25t73 -72t25.5 -112v-331q0 -65 -25.5 -112.5t-73 -72.5t-113.5 -25zM300 71q59 0 90.5 33.5
t31.5 95.5v330q0 62 -31.5 95.5t-90.5 33.5q-58 0 -90 -33.5t-32 -95.5v-330q0 -62 32 -95.5t90 -33.5zM257 810l-115 140h100l110 -140h-95z" />
    <glyph glyph-name="uni1EDD" unicode="&#x1edd;" 
d="M396 465v65h34q17 0 26 9t9 26v75h75v-80q0 -43 -29 -69t-76 -26h-39zM300 -8q-66 0 -114 25t-74.5 72.5t-26.5 112.5v146q0 66 26.5 113t74.5 72t114 25t114 -25t74.5 -72t26.5 -112v-147q0 -65 -26.5 -112.5t-74.5 -72.5t-114 -25zM300 72q59 0 92 33t33 97v146
q0 64 -33 97t-92 33q-58 0 -91.5 -33t-33.5 -97v-146q0 -64 33.5 -97t91.5 -33zM257 645l-115 140h100l110 -140h-95z" />
    <glyph glyph-name="uni1EDE" unicode="&#x1ede;" 
d="M400 635v65h20q16 0 25.5 9.5t9.5 25.5v75h75v-80q0 -43 -28.5 -69t-76.5 -26h-25zM300 -10q-66 0 -113.5 25t-73 72.5t-25.5 112.5v330q0 66 25.5 113t73 72t113.5 25t113.5 -25t73 -72t25.5 -112v-331q0 -65 -25.5 -112.5t-73 -72.5t-113.5 -25zM300 71q59 0 90.5 33.5
t31.5 95.5v330q0 62 -31.5 95.5t-90.5 33.5q-58 0 -90 -33.5t-32 -95.5v-330q0 -62 32 -95.5t90 -33.5zM258 800l45 63q14 20 14 32q0 20 -32 20h-75v65h80q47 0 76 -20.5t29 -54.5q0 -28 -17 -53l-35 -52h-85z" />
    <glyph glyph-name="uni1EDF" unicode="&#x1edf;" 
d="M396 465v65h34q17 0 26 9t9 26v75h75v-80q0 -43 -29 -69t-76 -26h-39zM300 -8q-66 0 -114 25t-74.5 72.5t-26.5 112.5v146q0 66 26.5 113t74.5 72t114 25t114 -25t74.5 -72t26.5 -112v-147q0 -65 -26.5 -112.5t-74.5 -72.5t-114 -25zM300 72q59 0 92 33t33 97v146
q0 64 -33 97t-92 33q-58 0 -91.5 -33t-33.5 -97v-146q0 -64 33.5 -97t91.5 -33zM258 645l50 63q14 19 14 32q0 20 -32 20h-80v65h105q38 0 61.5 -19.5t23.5 -54.5q0 -32 -17 -54l-40 -52h-85z" />
    <glyph glyph-name="uni1EE0" unicode="&#x1ee0;" 
d="M400 635v65h20q16 0 25.5 9.5t9.5 25.5v75h75v-80q0 -43 -28.5 -69t-76.5 -26h-25zM300 -10q-66 0 -113.5 25t-73 72.5t-25.5 112.5v330q0 66 25.5 113t73 72t113.5 25t113.5 -25t73 -72t25.5 -112v-331q0 -65 -25.5 -112.5t-73 -72.5t-113.5 -25zM300 71q59 0 90.5 33.5
t31.5 95.5v330q0 62 -31.5 95.5t-90.5 33.5q-58 0 -90 -33.5t-32 -95.5v-330q0 -62 32 -95.5t90 -33.5zM360 815q-30 0 -49 10.5t-32 24.5t-25 24.5t-29 10.5q-13 0 -21.5 -8.5t-8.5 -26.5v-30h-65v30q0 45 25 70t65 25q30 0 49 -10.5t32 -24.5t25 -24.5t29 -10.5
q14 0 22 8.5t8 26.5v30h65v-30q0 -45 -24.5 -70t-65.5 -25z" />
    <glyph glyph-name="uni1EE1" unicode="&#x1ee1;" 
d="M396 465v65h34q17 0 26 9t9 26v75h75v-80q0 -43 -29 -69t-76 -26h-39zM300 -8q-66 0 -114 25t-74.5 72.5t-26.5 112.5v146q0 66 26.5 113t74.5 72t114 25t114 -25t74.5 -72t26.5 -112v-147q0 -65 -26.5 -112.5t-74.5 -72.5t-114 -25zM300 72q59 0 92 33t33 97v146
q0 64 -33 97t-92 33q-58 0 -91.5 -33t-33.5 -97v-146q0 -64 33.5 -97t91.5 -33zM360 650q-30 0 -49 10.5t-32 24.5t-25 24.5t-29 10.5q-13 0 -21.5 -8.5t-8.5 -26.5v-30h-65v30q0 45 25 70t65 25q30 0 49 -10.5t32 -24.5t25 -24.5t29 -10.5q14 0 22 8.5t8 26.5v30h65v-30
q0 -45 -24.5 -70t-65.5 -25z" />
    <glyph glyph-name="uni1EE2" unicode="&#x1ee2;" 
d="M400 635v65h20q16 0 25.5 9.5t9.5 25.5v75h75v-80q0 -43 -28.5 -69t-76.5 -26h-25zM300 -10q-66 0 -113.5 25t-73 72.5t-25.5 112.5v330q0 66 25.5 113t73 72t113.5 25t113.5 -25t73 -72t25.5 -112v-331q0 -65 -25.5 -112.5t-73 -72.5t-113.5 -25zM300 71q59 0 90.5 33.5
t31.5 95.5v330q0 62 -31.5 95.5t-90.5 33.5q-58 0 -90 -33.5t-32 -95.5v-330q0 -62 32 -95.5t90 -33.5zM310 -213q-33 0 -52 17t-19 46q0 30 19 47.5t52 17.5t52 -17.5t19 -47.5q0 -29 -19 -46t-52 -17z" />
    <glyph glyph-name="uni1EE3" unicode="&#x1ee3;" 
d="M396 465v65h34q17 0 26 9t9 26v75h75v-80q0 -43 -29 -69t-76 -26h-39zM300 -8q-66 0 -114 25t-74.5 72.5t-26.5 112.5v146q0 66 26.5 113t74.5 72t114 25t114 -25t74.5 -72t26.5 -112v-147q0 -65 -26.5 -112.5t-74.5 -72.5t-114 -25zM300 72q59 0 92 33t33 97v146
q0 64 -33 97t-92 33q-58 0 -91.5 -33t-33.5 -97v-146q0 -64 33.5 -97t91.5 -33zM310 -213q-33 0 -52 17t-19 46q0 30 19 47.5t52 17.5t52 -17.5t19 -47.5q0 -29 -19 -46t-52 -17z" />
    <glyph glyph-name="uni1EE4" unicode="&#x1ee4;" 
d="M300 -10q-102 0 -156 56.5t-54 153.5v530h90v-530q0 -60 29.5 -95t90.5 -35q60 0 90 35t30 95v530h90v-530q0 -98 -53.5 -154t-156.5 -56zM300 -213q-33 0 -52 17t-19 46q0 30 19 47.5t52 17.5t52 -17.5t19 -47.5q0 -29 -19 -46t-52 -17z" />
    <glyph glyph-name="uni1EE5" unicode="&#x1ee5;" 
d="M299 -10q-95 0 -152 56.5t-57 153.5v350h90v-350q0 -62 32 -96.5t87 -34.5q56 0 88.5 34.5t32.5 96.5v350h90v-350q0 -97 -58 -153.5t-153 -56.5zM300 -213q-33 0 -52 17t-19 46q0 30 19 47.5t52 17.5t52 -17.5t19 -47.5q0 -29 -19 -46t-52 -17z" />
    <glyph glyph-name="uni1EE6" unicode="&#x1ee6;" 
d="M300 -10q-102 0 -156 56.5t-54 153.5v530h90v-530q0 -60 29.5 -95t90.5 -35q60 0 90 35t30 95v530h90v-530q0 -98 -53.5 -154t-156.5 -56zM258 800l45 63q14 20 14 32q0 20 -32 20h-75v65h80q47 0 76 -20.5t29 -54.5q0 -28 -17 -53l-35 -52h-85z" />
    <glyph glyph-name="uni1EE7" unicode="&#x1ee7;" 
d="M299 -10q-95 0 -152 56.5t-57 153.5v350h90v-350q0 -62 32 -96.5t87 -34.5q56 0 88.5 34.5t32.5 96.5v350h90v-350q0 -97 -58 -153.5t-153 -56.5zM258 645l50 63q14 19 14 32q0 20 -32 20h-80v65h105q38 0 61.5 -19.5t23.5 -54.5q0 -32 -17 -54l-40 -52h-85z" />
    <glyph glyph-name="uni1EE8" unicode="&#x1ee8;" 
d="M435 665v65h50q16 0 25.5 9.5t9.5 25.5v75h75v-80q0 -43 -28.5 -69t-76.5 -26h-55zM300 -10q-102 0 -156 56.5t-54 153.5v530h90v-530q0 -60 29.5 -95t90.5 -35q60 0 90 35t30 95v530h90v-530q0 -98 -53.5 -154t-156.5 -56zM242 810l106 140h97l-111 -140h-92z" />
    <glyph glyph-name="uni1EE9" unicode="&#x1ee9;" 
d="M90 200v350h90v-350q0 -62 32 -96.5t87 -34.5q56 0 88.5 34.5t32.5 96.5v350h70q17 0 26 9t9 26v75h75v-80q0 -43 -21.5 -69t-68.5 -26v-285q0 -97 -58 -153.5t-153 -56.5t-152 56.5t-57 153.5zM242 645l106 140h97l-111 -140h-92z" />
    <glyph glyph-name="uni1EEA" unicode="&#x1eea;" 
d="M435 665v65h50q16 0 25.5 9.5t9.5 25.5v75h75v-80q0 -43 -28.5 -69t-76.5 -26h-55zM300 -10q-102 0 -156 56.5t-54 153.5v530h90v-530q0 -60 29.5 -95t90.5 -35q60 0 90 35t30 95v530h90v-530q0 -98 -53.5 -154t-156.5 -56zM267 810l-115 140h100l110 -140h-95z" />
    <glyph glyph-name="uni1EEB" unicode="&#x1eeb;" 
d="M90 200v350h90v-350q0 -62 32 -96.5t87 -34.5q56 0 88.5 34.5t32.5 96.5v350h70q17 0 26 9t9 26v75h75v-80q0 -43 -21.5 -69t-68.5 -26v-285q0 -97 -58 -153.5t-153 -56.5t-152 56.5t-57 153.5zM267 645l-115 140h100l110 -140h-95z" />
    <glyph glyph-name="uni1EEC" unicode="&#x1eec;" 
d="M435 665v65h50q16 0 25.5 9.5t9.5 25.5v75h75v-80q0 -43 -28.5 -69t-76.5 -26h-55zM300 -10q-102 0 -156 56.5t-54 153.5v530h90v-530q0 -60 29.5 -95t90.5 -35q60 0 90 35t30 95v530h90v-530q0 -98 -53.5 -154t-156.5 -56zM258 800l45 63q14 20 14 32q0 20 -32 20h-75
v65h80q47 0 76 -20.5t29 -54.5q0 -28 -17 -53l-35 -52h-85z" />
    <glyph glyph-name="uni1EED" unicode="&#x1eed;" 
d="M90 200v350h90v-350q0 -62 32 -96.5t87 -34.5q56 0 88.5 34.5t32.5 96.5v350h70q17 0 26 9t9 26v75h75v-80q0 -43 -21.5 -69t-68.5 -26v-285q0 -97 -58 -153.5t-153 -56.5t-152 56.5t-57 153.5zM258 645l50 63q14 19 14 32q0 20 -32 20h-80v65h105q38 0 61.5 -19.5
t23.5 -54.5q0 -32 -17 -54l-40 -52h-85z" />
    <glyph glyph-name="uni1EEE" unicode="&#x1eee;" 
d="M435 665v65h50q16 0 25.5 9.5t9.5 25.5v75h75v-80q0 -43 -28.5 -69t-76.5 -26h-55zM300 -10q-102 0 -156 56.5t-54 153.5v530h90v-530q0 -60 29.5 -95t90.5 -35q60 0 90 35t30 95v530h90v-530q0 -98 -53.5 -154t-156.5 -56zM370 815q-30 0 -49 10.5t-32 24.5t-25 24.5
t-29 10.5q-13 0 -21.5 -8.5t-8.5 -26.5v-30h-65v30q0 45 25 70t65 25q30 0 49 -10.5t32 -24.5t25 -24.5t29 -10.5q14 0 22 8.5t8 26.5v30h65v-30q0 -45 -24.5 -70t-65.5 -25z" />
    <glyph glyph-name="uni1EEF" unicode="&#x1eef;" 
d="M90 200v350h90v-350q0 -62 32 -96.5t87 -34.5q56 0 88.5 34.5t32.5 96.5v350h70q17 0 26 9t9 26v75h75v-80q0 -43 -21.5 -69t-68.5 -26v-285q0 -97 -58 -153.5t-153 -56.5t-152 56.5t-57 153.5zM370 650q-30 0 -49 10.5t-32 24.5t-25 24.5t-29 10.5q-13 0 -21.5 -8.5
t-8.5 -26.5v-30h-65v30q0 45 25 70t65 25q30 0 49 -10.5t32 -24.5t25 -24.5t29 -10.5q14 0 22 8.5t8 26.5v30h65v-30q0 -45 -24.5 -70t-65.5 -25z" />
    <glyph glyph-name="uni1EF0" unicode="&#x1ef0;" 
d="M310 -213q-33 0 -52 17t-19 46q0 30 19 47.5t52 17.5t52 -17.5t19 -47.5q0 -29 -19 -46t-52 -17zM435 665v65h50q16 0 25.5 9.5t9.5 25.5v75h75v-80q0 -43 -28.5 -69t-76.5 -26h-55zM300 -10q-102 0 -156 56.5t-54 153.5v530h90v-530q0 -60 29.5 -95t90.5 -35q60 0 90 35
t30 95v530h90v-530q0 -98 -53.5 -154t-156.5 -56z" />
    <glyph glyph-name="uni1EF1" unicode="&#x1ef1;" 
d="M90 200v350h90v-350q0 -62 32 -96.5t87 -34.5q56 0 88.5 34.5t32.5 96.5v350h70q17 0 26 9t9 26v75h75v-80q0 -43 -21.5 -69t-68.5 -26v-285q0 -97 -58 -153.5t-153 -56.5t-152 56.5t-57 153.5zM299 -213q-33 0 -52 17t-19 46q0 30 19 47.5t52 17.5t52 -17.5t19 -47.5
q0 -29 -19 -46t-52 -17z" />
    <glyph glyph-name="Ygrave" unicode="&#x1ef2;" 
d="M255 0v273l-220 457h93l145 -300q12 -25 19 -42.5t9 -25.5q2 8 9.5 25.5t19.5 42.5l142 300h93l-220 -457v-273h-90zM267 810l-115 140h100l110 -140h-95z" />
    <glyph glyph-name="ygrave" unicode="&#x1ef3;" 
d="M178 -180l81 214l-204 516h100l128 -340q7 -17 13 -40.5t10 -39.5q4 16 10 39.5t12 40.5l120 340h97l-271 -730h-96zM267 645l-115 140h100l110 -140h-95z" />
    <glyph glyph-name="uni1EF4" unicode="&#x1ef4;" 
d="M255 0v273l-220 457h93l145 -300q12 -25 19 -42.5t9 -25.5q2 8 9.5 25.5t19.5 42.5l142 300h93l-220 -457v-273h-90zM310 -213q-33 0 -52 17t-19 46q0 30 19 47.5t52 17.5t52 -17.5t19 -47.5q0 -29 -19 -46t-52 -17z" />
    <glyph glyph-name="uni1EF5" unicode="&#x1ef5;" 
d="M178 -180l81 214l-204 516h100l128 -340q7 -17 13 -40.5t10 -39.5q4 16 10 39.5t12 40.5l120 340h97l-271 -730h-96zM460 -213q-33 0 -52 17t-19 46q0 30 19 47.5t52 17.5t52 -17.5t19 -47.5q0 -29 -19 -46t-52 -17z" />
    <glyph glyph-name="uni1EF6" unicode="&#x1ef6;" 
d="M255 0v273l-220 457h93l145 -300q12 -25 19 -42.5t9 -25.5q2 8 9.5 25.5t19.5 42.5l142 300h93l-220 -457v-273h-90zM258 800l45 63q14 20 14 32q0 20 -32 20h-75v65h80q47 0 76 -20.5t29 -54.5q0 -28 -17 -53l-35 -52h-85z" />
    <glyph glyph-name="uni1EF7" unicode="&#x1ef7;" 
d="M178 -180l81 214l-204 516h100l128 -340q7 -17 13 -40.5t10 -39.5q4 16 10 39.5t12 40.5l120 340h97l-271 -730h-96zM258 645l50 63q14 19 14 32q0 20 -32 20h-80v65h105q38 0 61.5 -19.5t23.5 -54.5q0 -32 -17 -54l-40 -52h-85z" />
    <glyph glyph-name="uni1EF8" unicode="&#x1ef8;" 
d="M255 0v273l-220 457h93l145 -300q12 -25 19 -42.5t9 -25.5q2 8 9.5 25.5t19.5 42.5l142 300h93l-220 -457v-273h-90zM370 815q-30 0 -49 10.5t-32 24.5t-25 24.5t-29 10.5q-13 0 -21.5 -8.5t-8.5 -26.5v-30h-65v30q0 45 25 70t65 25q30 0 49 -10.5t32 -24.5t25 -24.5
t29 -10.5q14 0 22 8.5t8 26.5v30h65v-30q0 -45 -24.5 -70t-65.5 -25z" />
    <glyph glyph-name="uni1EF9" unicode="&#x1ef9;" 
d="M178 -180l81 214l-204 516h100l128 -340q7 -17 13 -40.5t10 -39.5q4 16 10 39.5t12 40.5l120 340h97l-271 -730h-96zM370 650q-30 0 -49 10.5t-32 24.5t-25 24.5t-29 10.5q-13 0 -21.5 -8.5t-8.5 -26.5v-30h-65v30q0 45 25 70t65 25q30 0 49 -10.5t32 -24.5t25 -24.5
t29 -10.5q14 0 22 8.5t8 26.5v30h65v-30q0 -45 -24.5 -70t-65.5 -25z" />
    <glyph glyph-name="uni2010" unicode="&#x2010;" 
d="M140 290v80h320v-80h-320z" />
    <glyph glyph-name="endash" unicode="&#x2013;" 
d="M80 290v80h440v-80h-440z" />
    <glyph glyph-name="emdash" unicode="&#x2014;" 
d="M0 290v80h600v-80h-600z" />
    <glyph glyph-name="quoteleft" unicode="&#x2018;" 
d="M440 775l-80 -311h-130l130 311h80z" />
    <glyph glyph-name="quoteright" unicode="&#x2019;" 
d="M160 465l80 311h130l-130 -311h-80z" />
    <glyph glyph-name="quotesinglbase" unicode="&#x201a;" 
d="M165 -160l80 311h130l-130 -311h-80z" />
    <glyph glyph-name="quotedblleft" unicode="&#x201c;" 
d="M305 465l130 311h80l-80 -311h-130zM75 465l130 311h80l-80 -311h-130z" />
    <glyph glyph-name="quotedblright" unicode="&#x201d;" 
d="M315 465l80 311h130l-130 -311h-80zM85 465l80 311h130l-130 -311h-80z" />
    <glyph glyph-name="quotedblbase" unicode="&#x201e;" 
d="M315 -160l80 311h130l-130 -311h-80zM85 -160l80 311h130l-130 -311h-80z" />
    <glyph glyph-name="dagger" unicode="&#x2020;" 
d="M255 -110v630h-175v80h175v230h90v-230h175v-80h-175v-630h-90z" />
    <glyph glyph-name="daggerdbl" unicode="&#x2021;" 
d="M255 -110v250h-175v80h175v290h-175v80h175v240h90v-240h175v-80h-175v-290h175v-80h-175v-250h-90z" />
    <glyph glyph-name="bullet" unicode="&#x2022;" 
d="M300 245q-52 0 -86 34t-34 86q0 53 34 86.5t86 33.5q53 0 86.5 -33.5t33.5 -86.5q0 -52 -33.5 -86t-86.5 -34z" />
    <glyph glyph-name="onedotenleader" unicode="&#x2024;" 
d="M300 -10q-38 0 -60.5 22t-22.5 59q0 39 22.5 62t60.5 23t60.5 -23t22.5 -62q0 -37 -22.5 -59t-60.5 -22z" />
    <glyph glyph-name="ellipsis" unicode="&#x2026;" 
d="M490 -10q-22 0 -36 15t-14 40v70q0 25 14 40t36 15q23 0 36.5 -15t13.5 -40v-70q0 -25 -13.5 -40t-36.5 -15zM110 -10q-22 0 -36 15t-14 40v70q0 25 14 40t36 15q23 0 36.5 -15t13.5 -40v-70q0 -25 -13.5 -40t-36.5 -15zM300 -10q-22 0 -36 15t-14 40v70q0 25 14 40
t36 15q23 0 36.5 -15t13.5 -40v-70q0 -25 -13.5 -40t-36.5 -15z" />
    <glyph glyph-name="perthousand" unicode="&#x2030;" 
d="M-8 0l397 730h60l-397 -730h-60zM324 47q26 0 40 15t14 43v90q0 29 -14 43.5t-40 14.5q-25 0 -38.5 -15t-13.5 -43v-90q0 -28 13.5 -43t38.5 -15zM320 -5q-49 0 -78 29.5t-29 80.5v90q0 51 29 80.5t78 29.5q44 0 64 -21.5t22 -42.5q2 21 23 42.5t64 21.5q50 0 78.5 -29.5
t28.5 -80.5v-90q0 -51 -28.5 -80.5t-78.5 -29.5q-43 0 -63.5 21.5t-22.5 42.5q-2 -21 -22.5 -42.5t-64.5 -21.5zM489 47q26 0 39 15t13 43v90q0 29 -13 43.5t-39 14.5t-40 -14.5t-14 -43.5v-90q0 -28 14 -43t40 -15zM120 440q-55 0 -87.5 31t-32.5 84v65q0 53 32.5 84
t87.5 31q56 0 88 -31t32 -84v-65q0 -53 -32 -84t-88 -31zM120 499q28 0 42 14t14 42v65q0 28 -14 42t-42 14t-42 -14t-14 -42v-65q0 -28 14 -42t42 -14z" />
    <glyph glyph-name="minute" unicode="&#x2032;" 
d="M165 465l80 311h130l-130 -311h-80z" />
    <glyph glyph-name="second" unicode="&#x2033;" 
d="M315 465l80 311h130l-130 -311h-80zM85 465l80 311h130l-130 -311h-80z" />
    <glyph glyph-name="guilsinglleft" unicode="&#x2039;" 
d="M349 40l-202 240l202 240h102l-204 -238l207 -242h-105z" />
    <glyph glyph-name="guilsinglright" unicode="&#x203a;" 
d="M150 40l204 238l-207 242h105l202 -240l-202 -240h-102z" />
    <glyph glyph-name="fraction" unicode="&#x2044;" 
d="M90 0l357 730h63l-357 -730h-63z" />
    <glyph glyph-name="uni2070" unicode="&#x2070;" 
d="M300 395q-72 0 -113.5 39.5t-41.5 109.5v148q0 69 41.5 108.5t113.5 39.5t113.5 -39.5t41.5 -108.5v-148q0 -70 -41.5 -109.5t-113.5 -39.5zM300 458q40 0 62.5 23t22.5 63v148q0 40 -22.5 62.5t-62.5 22.5t-62.5 -22.5t-22.5 -62.5v-148q0 -40 22.5 -63t62.5 -23z" />
    <glyph glyph-name="uni2074" unicode="&#x2074;" 
d="M358 405v92h-212v93l170 241h78l-178 -255v-15h142v104h70v-260h-70z" />
    <glyph glyph-name="uni2075" unicode="&#x2075;" 
d="M285 395q-61 0 -101 32.5t-47 87.5h70q5 -26 26 -41.5t52 -15.5q36 0 57 21.5t21 58.5t-21.5 58.5t-58.5 21.5q-20 0 -37.5 -8t-26.5 -22h-65v242h262v-64h-192v-162l-11 -5q7 34 33.5 53.5t64.5 19.5q57 0 90.5 -36t33.5 -98q0 -66 -40.5 -104.5t-109.5 -38.5z" />
    <glyph glyph-name="uni2076" unicode="&#x2076;" 
d="M301 395q-70 0 -113 39t-43 104q0 31 11 66.5t29 63.5l107 162h76l-125 -193h34l-37 -20q8 25 34.5 39.5t60.5 14.5q55 0 87.5 -36t32.5 -97q0 -65 -41.5 -104t-112.5 -39zM300 457q39 0 61.5 22t22.5 59q0 38 -22.5 59.5t-61.5 21.5q-38 0 -61 -21.5t-23 -59.5
q0 -37 23 -59t61 -22z" />
    <glyph glyph-name="uni2077" unicode="&#x2077;" 
d="M211 405l167 361h-154v-63h-69v127h290v-80l-155 -345h-79z" />
    <glyph glyph-name="uni2078" unicode="&#x2078;" 
d="M300 395q-69 0 -109.5 31.5t-40.5 84.5q0 36 27 68t73 50l78 31q21 8 33 25t12 37q0 27 -20 42.5t-54 15.5q-33 0 -52 -16t-19 -43q0 -19 13.5 -35.5t35.5 -25.5l74 -29q46 -18 72.5 -50t26.5 -70q0 -53 -40.5 -84.5t-109.5 -31.5zM300 457q37 0 58.5 17t21.5 45
q0 22 -12.5 40t-34.5 27l-73 31q-47 20 -74.5 51.5t-27.5 64.5q0 50 38.5 78.5t103.5 28.5q66 0 104.5 -28.5t38.5 -78.5q0 -34 -27 -64.5t-74 -50.5l-77 -32q-21 -9 -33 -26.5t-12 -39.5q0 -29 21.5 -46t58.5 -17z" />
    <glyph glyph-name="uni2079" unicode="&#x2079;" 
d="M232 405l126 193h-34l37 20q-8 -25 -34 -39.5t-61 -14.5q-55 0 -87.5 36t-32.5 97q0 65 42 104t112 39q71 0 113.5 -39t42.5 -104q0 -29 -11 -64t-30 -64l-106 -164h-77zM301 616q38 0 61 22t23 59q0 38 -23 59.5t-61 21.5q-39 0 -61.5 -21.5t-22.5 -59.5q0 -37 22.5 -59
t61.5 -22z" />
    <glyph glyph-name="uni207A" unicode="&#x207a;" 
d="M260 305v105h-100v70h100v105h80v-105h100v-70h-100v-105h-80z" />
    <glyph glyph-name="uni2080" unicode="&#x2080;" 
d="M300 -120q-72 0 -113.5 39.5t-41.5 109.5v148q0 69 41.5 108.5t113.5 39.5t113.5 -39.5t41.5 -108.5v-148q0 -70 -41.5 -109.5t-113.5 -39.5zM300 -57q40 0 62.5 23t22.5 63v148q0 40 -22.5 62.5t-62.5 22.5t-62.5 -22.5t-22.5 -62.5v-148q0 -40 22.5 -63t62.5 -23z" />
    <glyph glyph-name="uni2081" unicode="&#x2081;" 
d="M155 -110v64h131v298l-122 -87v79l97 71h95v-361h104v-64h-305z" />
    <glyph glyph-name="uni2082" unicode="&#x2082;" 
d="M166 -110v87l162 121q22 16 34.5 38.5t12.5 44.5q0 38 -21 59.5t-56 21.5t-56 -21.5t-21 -59.5h-70q3 66 43 105t104 39q68 0 107 -38.5t39 -103.5q0 -35 -21 -71t-58 -63l-128 -95h218v-64h-289z" />
    <glyph glyph-name="uni2083" unicode="&#x2083;" 
d="M284 -120q-68 0 -108 38t-40 102h69q0 -35 21 -56t58 -21q35 0 55.5 21t20.5 56t-20 55.5t-55 20.5h-30v67l93 89h-183v64h240v-79l-117 -111v28q66 0 105 -36t39 -98q0 -64 -40 -102t-108 -38z" />
    <glyph glyph-name="uni2084" unicode="&#x2084;" 
d="M358 -110v92h-212v93l170 241h78l-178 -255v-15h142v104h70v-260h-70z" />
    <glyph glyph-name="uni2085" unicode="&#x2085;" 
d="M285 -120q-61 0 -101 32.5t-47 87.5h70q5 -26 26 -41.5t52 -15.5q36 0 57 21.5t21 58.5t-21.5 58.5t-58.5 21.5q-20 0 -37.5 -8t-26.5 -22h-65v242h262v-64h-192v-162l-11 -5q7 34 33.5 53.5t64.5 19.5q57 0 90.5 -36t33.5 -98q0 -66 -40.5 -104.5t-109.5 -38.5z" />
    <glyph glyph-name="uni2086" unicode="&#x2086;" 
d="M301 -120q-70 0 -113 39t-43 104q0 31 11 66.5t29 63.5l107 162h76l-125 -193h34l-37 -20q8 25 34.5 39.5t60.5 14.5q55 0 87.5 -36t32.5 -97q0 -65 -41.5 -104t-112.5 -39zM300 -58q39 0 61.5 22t22.5 59q0 38 -22.5 59.5t-61.5 21.5q-38 0 -61 -21.5t-23 -59.5
q0 -37 23 -59t61 -22z" />
    <glyph glyph-name="uni2087" unicode="&#x2087;" 
d="M211 -110l167 361h-154v-63h-69v127h290v-80l-155 -345h-79z" />
    <glyph glyph-name="uni2088" unicode="&#x2088;" 
d="M300 -130q-69 0 -109.5 31.5t-40.5 84.5q0 36 27 68t73 50l78 31q21 8 33 25t12 37q0 27 -20 42.5t-54 15.5q-33 0 -52 -16t-19 -43q0 -19 13.5 -35.5t35.5 -25.5l74 -29q46 -18 72.5 -50t26.5 -70q0 -53 -40.5 -84.5t-109.5 -31.5zM300 -68q37 0 58.5 17t21.5 45
q0 22 -12.5 40t-34.5 27l-73 31q-47 20 -74.5 51.5t-27.5 64.5q0 50 38.5 78.5t103.5 28.5q66 0 104.5 -28.5t38.5 -78.5q0 -34 -27 -64.5t-74 -50.5l-77 -32q-21 -9 -33 -26.5t-12 -39.5q0 -29 21.5 -46t58.5 -17z" />
    <glyph glyph-name="uni2089" unicode="&#x2089;" 
d="M232 -110l126 193h-34l37 20q-8 -25 -34 -39.5t-61 -14.5q-55 0 -87.5 36t-32.5 97q0 65 42 104t112 39q71 0 113.5 -39t42.5 -104q0 -29 -11 -64t-30 -64l-106 -164h-77zM301 101q38 0 61 22t23 59q0 38 -23 59.5t-61 21.5q-39 0 -61.5 -21.5t-22.5 -59.5
q0 -37 22.5 -59t61.5 -22z" />
    <glyph glyph-name="dong" unicode="&#x20ab;" 
d="M268 50q-82 0 -130 55t-48 149v41q0 95 47.5 150t130.5 55q68 0 108 -37t40 -99l-18 21h20l-2 125v220h90v-670h-90v105h-18l18 21q0 -63 -40 -99.5t-108 -36.5zM90 -80v80h420v-80h-420zM298 128q56 0 87 35t31 97v30q0 62 -31 97t-87 35q-57 0 -87.5 -34t-30.5 -98v-30
q0 -64 30.5 -98t87.5 -34zM300 570v75h300v-75h-300z" />
    <glyph glyph-name="Euro" unicode="&#x20ac;" 
d="M320 -10q-67 0 -116.5 26.5t-76.5 75t-27 113.5v40h-81v65h81v100h-81v65h81v40q0 66 27 114t76.5 74.5t116.5 26.5q62 0 109 -23.5t75.5 -67t35.5 -104.5h-90q-6 54 -40.5 84.5t-89.5 30.5q-60 0 -95 -36t-35 -99v-40h165v-65h-165v-100h165v-65h-165v-40
q0 -63 34.5 -99t95.5 -36q55 0 89.5 30.5t40.5 84.5h90q-7 -61 -35.5 -104.5t-75.5 -67t-109 -23.5z" />
    <glyph glyph-name="uni20AE" unicode="&#x20ae;" 
d="M256 0v183l-176 -48v75l176 48v100l-176 -48v75l176 48v218h-211v79h510v-79h-211v-194l176 48v-75l-176 -48v-100l176 48v-75l-176 -48v-207h-88z" />
    <glyph glyph-name="uni20BD" unicode="&#x20bd;" 
d="M110 0v155h-80v80h80v85h-80v80h80v330h223q66 0 114.5 -25.5t75.5 -71.5t27 -108q0 -61 -27 -107.5t-75.5 -72t-114.5 -25.5h-133v-85h230v-80h-230v-155h-90zM200 400h133q57 0 90.5 34t33.5 91t-33.5 91t-90.5 34h-133v-250z" />
    <glyph glyph-name="uni20BF" unicode="&#x20bf;" 
d="M179 -140v140h-86v730h86v141h60v-141h70v141h60v-148q68 -16 106 -63t38 -119q0 -40 -13 -71t-37.5 -52.5t-59.5 -31.5q40 -11 68 -36t43.5 -62.5t15.5 -84.5q0 -80 -42.5 -132t-118.5 -66v-145h-60v140h-70v-140h-60zM181 81h124q63 0 99.5 33.5t36.5 91.5
q0 60 -36.5 97.5t-99.5 37.5h-124v-260zM181 419h118q58 0 91.5 31t33.5 84t-33 84t-91 31h-119v-230z" />
    <glyph glyph-name="uni2113" unicode="&#x2113;" 
d="M337 0q-51 0 -88.5 19.5t-58 55.5t-20.5 85v425q0 70 44 112.5t116 42.5q73 0 116.5 -42t43.5 -113v-85q0 -67 -39.5 -121t-109.5 -80l-241 -92l-30 81l243 89q42 16 64.5 48t22.5 75v85q0 35 -18 54t-52 19q-33 0 -51.5 -19t-18.5 -54v-425q0 -37 20.5 -57.5t56.5 -20.5
q23 0 41.5 10t32.5 24t21 27l68 -42q-9 -21 -31.5 -44.5t-55.5 -40t-76 -16.5z" />
    <glyph glyph-name="uni2115" unicode="&#x2115;" 
d="M90 0v730h129l246 -560q-1 26 -2.5 64.5t-1.5 65.5v430h49v-730h-129l-246 560q2 -25 3 -63.5t1 -66.5v-430h-49zM410 39h66l-286 652h-66z" />
    <glyph glyph-name="uni2116" unicode="&#x2116;" 
d="M30 0v730h95l117 -453q6 -21 14 -55t16.5 -71t14.5 -66q-2 22 -4 49t-4 56t-3 55t-1 45v440h70v-730h-95l-114 454q-5 23 -13.5 57t-17 70.5t-15.5 64.5q2 -21 3.5 -48t3 -55.5t2.5 -55t1 -47.5v-440h-70zM495 300q-40 0 -67.5 29t-27.5 76v230q0 47 27.5 76t67.5 29
q41 0 68 -29t27 -76v-230q0 -47 -27 -76t-68 -29zM495 355q14 0 24.5 9t10.5 31v250q0 18 -10.5 29t-24.5 11q-13 0 -24 -11t-11 -29v-250q0 -22 11 -31t24 -9z" />
    <glyph glyph-name="trademark" unicode="&#x2122;" 
d="M115 370v310h-100v50h260v-50h-100v-310h-60zM310 370v360h80l34 -102q5 -14 9.5 -35.5t6.5 -35.5q2 14 5.5 35.5t8.5 35.5l33 102h78v-360h-55v221q0 19 1 39.5t3 39t3 30.5q-6 -20 -13 -45.5t-10 -34.5l-30 -103h-51l-33 104q-3 9 -10 34t-13 45q2 -12 3.5 -30.5t3 -39
t1.5 -39.5v-221h-55z" />
    <glyph glyph-name="estimated" unicode="&#x212e;" 
d="M300 -10q-71 0 -125.5 32.5t-84.5 91.5t-30 136v230q0 78 30 136.5t84.5 91t125.5 32.5q73 0 126.5 -32.5t83.5 -90.5t30 -137v-121h-410v50h317l-7 -8v229q-12 21 -48 43t-92 22q-55 0 -91.5 -22t-48.5 -43v-530q12 -21 48.5 -43t91.5 -22q59 0 108 30.5t69 79.5h50
q-16 -46 -50 -81t-79.5 -54.5t-97.5 -19.5z" />
    <glyph glyph-name="arrowleft" unicode="&#x2190;" 
d="M272 35l-232 295l231 295h106l-162 -205q-10 -13 -23 -25.5t-22 -19.5v-9q13 2 33.5 3t36.5 1h330v-80h-330q-16 0 -36.5 2t-33.5 3v-9q7 -6 19.5 -19t25.5 -28l162 -204h-105z" />
    <glyph glyph-name="arrowup" unicode="&#x2191;" 
d="M255 0v520q0 22 2 44.5t3 35.5h-10q-10 -15 -55 -54l-185 -158v105l291 247l289 -246v-105l-186 158q-22 19 -35.5 33t-18.5 20h-10q2 -13 3.5 -35.5t1.5 -44.5v-520h-90z" />
    <glyph glyph-name="arrowright" unicode="&#x2192;" 
d="M233 35l162 205q10 13 23 25.5t22 19.5v9q-13 -1 -33 -2.5t-37 -1.5h-330v80h330q17 0 37 -1.5t33 -3.5v9q-7 6 -19.5 19t-25.5 28l-162 204h105l232 -295l-231 -295h-106z" />
    <glyph glyph-name="arrowdown" unicode="&#x2193;" 
d="M299 -10l-289 246v105l186 -158q22 -19 36 -33t18 -20h10q-1 13 -3 35.5t-2 44.5v520h90v-520q0 -22 -1.5 -44.5t-3.5 -35.5h10q10 15 55 54l185 158v-105z" />
    <glyph glyph-name="arrowboth" unicode="&#x2194;" 
d="M152 35l-232 295l231 295h106l-162 -205q-10 -13 -23 -25.5t-22 -19.5v-9q13 2 33.5 3t36.5 1h360q17 0 37 -1.5t33 -3.5v9q-7 6 -19.5 19t-25.5 28l-162 204h105l232 -295l-231 -295h-106l162 205q10 13 23 25.5t22 19.5v9q-13 -1 -33 -2.5t-37 -1.5h-360q-16 0 -36.5 2
t-33.5 3v-9q7 -6 19.5 -19t25.5 -28l162 -204h-105z" />
    <glyph glyph-name="arrowupdn" unicode="&#x2195;" 
d="M300 -170l-290 246v105l186 -158q22 -19 36 -33t18 -20h10q-1 13 -3 35.5t-2 44.5v630q0 22 2 44.5t3 35.5h-10q-10 -15 -55 -54l-185 -158v105l290 247l290 -246v-105l-186 158q-22 19 -35.5 33t-18.5 20h-10q2 -13 3.5 -35.5t1.5 -44.5v-630q0 -22 -1.5 -44.5
t-3.5 -35.5h10q10 15 55 54l185 158v-105z" />
    <glyph glyph-name="uni2196" unicode="&#x2196;" 
d="M529 75l-355 358q-14 14 -28 31t-22 27l-7 -2q2 -13 5 -36.5t3 -48.5v-199h-80v415h415v-78h-195q-25 0 -47 2l-33 3l-1 -7q9 -7 24.5 -19.5t28.5 -26.5l353 -356z" />
    <glyph glyph-name="uni2197" unicode="&#x2197;" 
d="M69 76l-59 62l353 356q14 14 29 26.5t24 19.5l-1 7l-33 -3t-47 -2h-195v78h415v-415h-80v199q0 25 2 49t4 37l-7 2q-7 -10 -21.5 -27t-28.5 -31z" />
    <glyph glyph-name="uni2198" unicode="&#x2198;" 
d="M140 75v78h195q25 0 47 -1.5t33 -3.5l1 7q-9 7 -24 20t-29 26l-353 356l61 63l355 -358q14 -14 28.5 -30.5t21.5 -27.5l7 2q-2 13 -5 36.5t-3 48.5v199h80v-415h-415z" />
    <glyph glyph-name="uni2199" unicode="&#x2199;" 
d="M45 75v415h80v-199q0 -25 -2.5 -49t-4.5 -38l7 -2q8 11 22 27.5t28 30.5l355 358l60 -61l-353 -356q-13 -13 -28.5 -26t-24.5 -20l1 -7q11 2 33 3.5t47 1.5h195v-78h-415z" />
    <glyph glyph-name="uni21E7" unicode="&#x21e7;" 
d="M140 0v339h80v-339h-80zM15 267v72h155v-72h-155zM380 0v339h80v-339h-80zM430 267v72h155v-72h-155zM140 0v76h320v-76h-320zM15 339l236 211h98l235 -211h-117l-169 149l-168 -149h-115z" />
    <glyph glyph-name="universal" unicode="&#x2200;" 
d="M239 0l-189 730h91l123 -495q13 -52 22.5 -97t13.5 -68q5 23 14 67.5t22 96.5l122 496h92l-190 -730h-121zM161 452v76h270v-76h-270z" />
    <glyph glyph-name="partialdiff" unicode="&#x2202;" 
d="M300 -10q-66 0 -113 26t-72 74t-25 115v80q0 98 48.5 154t135.5 56q68 0 106.5 -33t39.5 -92l-14 20h14v25q0 54 -24.5 103t-63.5 90t-84 72t-87 50h135l21.5 -13.5t53.5 -40.5t64 -66t53.5 -90.5t21.5 -114.5v-200q0 -100 -56 -157.5t-154 -57.5zM300 70q58 0 89 35
t31 100v80q0 66 -30.5 100.5t-89.5 34.5q-58 0 -89 -35t-31 -100v-80q0 -65 31 -100t89 -35z" />
    <glyph glyph-name="existential" unicode="&#x2203;" 
d="M80 0v82h330v258h-295v82h295v226h-330v82h420v-730h-420z" />
    <glyph glyph-name="element" unicode="&#x2208;" 
d="M265 70q-62 0 -114.5 28.5t-84 78t-31.5 111.5v144q0 62 31.5 111.5t84 78t114.5 28.5h305v-80h-305q-39 0 -71 -19.5t-50.5 -51.5t-18.5 -69v-30h445v-80h-445v-30q0 -37 18.5 -69t50.5 -51.5t71 -19.5h305v-80h-305z" />
    <glyph glyph-name="notelement" unicode="&#x2209;" 
d="M120 -60l297 840h63l-297 -840h-63zM265 70q-62 0 -114.5 28.5t-84 78t-31.5 111.5v144q0 62 31.5 111.5t84 78t114.5 28.5h305v-80h-305q-39 0 -71 -19.5t-50.5 -51.5t-18.5 -69v-30h445v-80h-445v-30q0 -37 18.5 -69t50.5 -51.5t71 -19.5h305v-80h-305z" />
    <glyph glyph-name="suchthat" unicode="&#x220b;" 
d="M35 70v80h305q40 0 71.5 19.5t50 51.5t18.5 69v30h-445v80h445v30q0 37 -18.5 69t-50 51.5t-71.5 19.5h-305v80h305q63 0 115 -28.5t83.5 -78t31.5 -111.5v-144q0 -62 -31.5 -111.5t-83.5 -78t-115 -28.5h-305z" />
    <glyph glyph-name="uni220C" unicode="&#x220c;" 
d="M120 -60l297 840h63l-297 -840h-63zM35 70v80h305q40 0 71.5 19.5t50 51.5t18.5 69v30h-445v80h445v30q0 37 -18.5 69t-50 51.5t-71.5 19.5h-305v80h305q63 0 115 -28.5t83.5 -78t31.5 -111.5v-144q0 -62 -31.5 -111.5t-83.5 -78t-115 -28.5h-305z" />
    <glyph glyph-name="product" unicode="&#x220f;" 
d="M110 -180v828h-70v82h520v-82h-70v-828h-90v828h-200v-828h-90z" />
    <glyph glyph-name="uni2210" unicode="&#x2210;" 
d="M40 -180v82h65v828h90v-828h210v828h90v-828h65v-82h-520z" />
    <glyph glyph-name="summation" unicode="&#x2211;" 
d="M55 -180v82l318 372l-318 374v82h485v-80h-375l274 -323v-103l-280 -324h381v-80h-485z" />
    <glyph glyph-name="minus" unicode="&#x2212;" 
d="M140 290v80h320v-80h-320z" />
    <glyph glyph-name="uni2215" unicode="&#x2215;" 
d="M90 0l357 730h63l-357 -730h-63z" />
    <glyph glyph-name="uni2218" unicode="&#x2218;" 
d="M300 210q-52 0 -86 34t-34 86q0 53 34 86.5t86 33.5q53 0 86.5 -33.5t33.5 -86.5q0 -52 -33.5 -86t-86.5 -34zM300 250q35 0 57.5 22.5t22.5 57.5t-22.5 57.5t-57.5 22.5t-57.5 -22.5t-22.5 -57.5t22.5 -57.5t57.5 -22.5z" />
    <glyph glyph-name="uni2219" unicode="&#x2219;" 
d="M300 240q-38 0 -60.5 22t-22.5 59q0 39 22.5 62t60.5 23t60.5 -23t22.5 -62q0 -37 -22.5 -59t-60.5 -22z" />
    <glyph glyph-name="radical" unicode="&#x221a;" 
d="M268 0l-127 470h-111v80h175l99 -389q8 -34 11 -59.5t2 -36.5h9q-1 11 2.5 37t12.5 59l160 569h84l-212 -730h-105z" />
    <glyph glyph-name="infinity" unicode="&#x221e;" 
d="M166 160q-59 0 -95 37t-36 98v75q0 61 38 98t99 37q51 0 86 -25.5t52 -73.5h3q5 22 19.5 44.5t40 38.5t61.5 16q59 0 95 -37t36 -98v-75q0 -61 -37.5 -98t-99.5 -37q-51 0 -86 25.5t-52 73.5h-3q-4 -21 -19 -44t-40 -39t-62 -16zM175 220q29 0 47 11.5t28.5 27.5t15.5 30
t6 20l-31 84q-22 52 -66 52q-31 0 -50.5 -20.5t-19.5 -54.5v-75q0 -34 19.5 -54.5t50.5 -20.5zM425 220q32 0 51 20.5t19 54.5v75q0 34 -19 54.5t-51 20.5q-28 0 -46.5 -11.5t-29 -27.5t-15.5 -30t-6 -20l31 -84q11 -26 27.5 -39t38.5 -13z" />
    <glyph glyph-name="uni2223" unicode="&#x2223;" 
d="M255 0v730h90v-730h-90z" />
    <glyph glyph-name="uni2225" unicode="&#x2225;" 
d="M355 0v730h90v-730h-90zM155 0v730h90v-730h-90z" />
    <glyph glyph-name="logicaland" unicode="&#x2227;" 
d="M60 50l179 500h122l179 -500h-92l-117 320q-12 32 -20.5 63.5t-12.5 47.5q-4 -16 -13 -47.5t-20 -63.5l-114 -320h-91z" />
    </font>
</defs>
</svg>
